<?xml version="1.0" standalone="no"?>
<!DOCTYPE svg PUBLIC "-//W3C//DTD SVG 1.1//EN" "http://www.w3.org/Graphics/SVG/1.1/DTD/svg11.dtd" >
<svg xmlns="http://www.w3.org/2000/svg" xmlns:xlink="http://www.w3.org/1999/xlink" version="1.1">
<metadata>
Created by FontForge 20141024 at Mon Jan 25 11:16:50 2016
 By Jimmy Warting
----------------------------------------------------------------------------------
  Copyright (c) 2006 M. Hacen, All Rights Reserved / www.hacen.net
        Convert And Modified By Mojtaba Kia (c) 2007 - 2008
----------------------------------------------------------------------------------
</metadata>
<defs>
<font id="Mj_Casablanca" horiz-adv-x="0" >
  <font-face 
    font-family="Mj_Casablanca"
    font-weight="400"
    font-stretch="normal"
    units-per-em="2048"
    panose-1="0 0 4 0 0 0 0 0 0 0"
    ascent="1638"
    descent="-410"
    bbox="-211 -1483 2212 2140"
    underline-thickness="60"
    underline-position="-650"
    unicode-range="U+0020-FEFC"
  />
<missing-glyph horiz-adv-x="1024" 
d="M128 -156v1343h768v-1343h-768zM256 -28h512v1087h-512v-1087z" />
    <glyph glyph-name=".notdef" unicode="&#x652;&#x64d;" horiz-adv-x="1024" 
d="M128 -156v1343h768v-1343h-768zM256 -28h512v1087h-512v-1087z" />
    <glyph glyph-name="uniFC60" unicode="&#x651;&#x64e;" arabic-form="isolated" 
d="M546 1664q0 -60 -35 -104q-42 -49 -108 -49q-70 0 -96 47q-43 -51 -122 -51q-52 0 -86 43t-34 89q0 34 19 74q25 55 64 55q29 0 29 -31q0 -11 -2.5 -30t-2.5 -29q0 -42 33 -42q38 0 53 31q5 12 19 73q6 31 38 31t35 -34q12 -106 53 -106q38 0 38 45q0 22 -10 56l79 65
q36 -59 36 -133zM505 1967l-377 -155v114l377 149v-108z" />
    <glyph glyph-name="uniFC61" unicode="&#x651;&#x64f;" horiz-adv-x="1" arabic-form="isolated" 
d="M524 1575q0 -61 -35 -104q-42 -49 -108 -49q-69 0 -95 47q-42 -50 -123 -50q-57 0 -93 54q-27 40 -27 77q0 33 19 74q25 54 64 54q29 0 29 -30q0 -10 -2.5 -29.5t-2.5 -28.5q0 -42 33 -42q38 0 53 31q4 9 19 73q6 30 38 30t35 -33q12 -106 53 -106q38 0 38 45
q0 22 -10 56l79 64q36 -56 36 -133zM516 2028q0 -50 -71 -129q1 0 47 -12l-49 -88q-71 13 -99 34q-123 -70 -217 -70q-46 0 -86 97q117 2 151 7q63 8 86 28q-35 63 -35 87q0 55 75 109q64 49 100 49q47 0 76 -39q22 -32 22 -73zM404 2017q0 24 -19 24q-10 0 -23 -11.5
t-13 -25.5q0 -35 27 -56q28 18 28 69z" />
    <glyph glyph-name="uniE818" unicode="&#x651;&#x64b;" 
d="M519 1770l-377 -155v114l377 150v-109zM555 1436q0 -61 -35 -104q-42 -49 -108 -49q-69 0 -96 47q-41 -50 -122 -50q-57 0 -93 54q-27 40 -27 77q0 33 19 74q25 54 64 54q29 0 29 -30q0 -10 -2.5 -29.5t-2.5 -28.5q0 -42 33 -42q38 0 53 31q4 9 19 73q6 30 38 30t35 -33
q12 -106 53 -106q38 0 38 45q0 22 -10 56l79 64q36 -56 36 -133zM519 1983l-377 -155v114l377 149v-108z" />
    <glyph glyph-name="uniFC5E" unicode="&#x651;&#x64c;" arabic-form="isolated" 
d="M524 1535q0 -60 -35 -104q-42 -49 -108 -49q-70 0 -96 47q-43 -51 -122 -51q-52 0 -86 43t-34 89q0 34 19 74q25 55 64 55q29 0 29 -31q0 -11 -2.5 -30t-2.5 -29q0 -42 33 -42q38 0 53 31q5 12 19 73q6 31 38 31t35 -34q12 -106 53 -106q38 0 38 45q0 22 -10 56l79 65
q36 -59 36 -133zM535 1982q0 -51 -71 -130l47 -14l-50 -86q-68 12 -98 34q-118 -70 -218 -70q-43 0 -87 96q64 0 73 3q21 24 21 50q0 20 -16 20q-17 0 -62 -48l-18 84q49 56 101 56q19 0 37 -9q48 -22 48 -78q0 -42 -15 -65q46 4 70 23q-36 61 -36 86q0 56 75 110
q64 48 101 48q98 0 98 -110zM423 1970q0 23 -20 23q-34 0 -34 -37q0 -35 26 -56q28 18 28 70z" />
    <glyph glyph-name="uniFC62" unicode="&#x651;&#x650;" horiz-adv-x="1" arabic-form="isolated" 
d="M547 1842q0 -61 -35 -105q-42 -49 -108 -49q-70 0 -96 47q-43 -51 -122 -51q-52 0 -86 43.5t-34 88.5q0 34 19 74q25 55 64 55q29 0 29 -31q0 -11 -2.5 -30t-2.5 -29q0 -41 33 -41q38 0 53 30q5 12 19 74q6 30 38 30t35 -33q12 -107 53 -107q38 0 38 45q0 22 -10 57
l79 65q36 -59 36 -133zM492 1536l-378 -154v113l378 150v-109z" />
    <glyph glyph-name="uniFC5F" unicode="&#x651;&#x64d;" horiz-adv-x="1" arabic-form="isolated" 
d="M547 1964q0 -61 -35 -105q-42 -49 -108 -49q-70 0 -96 47q-43 -51 -122 -51q-52 0 -86 43.5t-34 88.5q0 34 19 74q25 55 64 55q29 0 29 -31q0 -11 -2.5 -30t-2.5 -29q0 -41 33 -41q38 0 53 30q5 12 19 74q6 30 38 30t35 -33q12 -107 53 -107q38 0 38 45q0 22 -10 57
l79 65q36 -59 36 -133zM492 1658l-378 -154v113l378 150v-109zM492 1474l-378 -154v113l378 150v-109z" />
    <glyph glyph-name="uniFEF5" unicode="&#xfedf;&#xfe82;" horiz-adv-x="989" arabic-form="isolated" 
d="M133 -103v234q1 74 24.5 135.5t65 110t98 84.5t123.5 58l-377 553l194 131l387 -567q36 39 36 108v448h235l1 -170q0 -53 1 -106.5t-2 -107t-12 -106t-27 -103.5q-17 -45 -45 -82.5t-57 -73.5q63 -129 66 -232.5t-46.5 -175t-146.5 -107.5t-233 -31h-285zM10 1231
q0 80 57.5 152.5t216 7t242.5 46.5q-40 -237 -231.5 -157t-284.5 -49zM501 131q39 -1 69 9.5t43.5 34t6.5 60t-41 87.5q-42 -8 -76.5 -22t-61.5 -36t-45.5 -54.5t-28.5 -78.5h134z" />
    <glyph glyph-name="uniFEF6" unicode="&#xfee0;&#xfe82;" horiz-adv-x="1053" arabic-form="final" 
d="M920 1192v-824q4 -32 17 -56.5t31 -41t40.5 -25.5t45.5 -9v-234q-94 0 -173 43.5t-128 115.5q-58 -51 -126.5 -82.5t-137.5 -50t-133.5 -25.5t-115 -8t-82 1t-34.5 3l67 242q34 -1 74.5 0.5t82.5 6.5t84 14.5t80 24.5q-28 90 -82.5 184.5t-121 190t-136.5 189.5t-129 183
l191 161q34 -51 82.5 -112t100 -128t99.5 -139t82.5 -144.5t49.5 -144.5t-1 -139q38 52 38 126v678h235zM10 1231q0 80 57.5 152.5t216 7t242.5 46.5q-40 -237 -231.5 -157t-284.5 -49z" />
    <glyph glyph-name="uniFEF7" unicode="&#xfedf;&#xfe84;" horiz-adv-x="989" arabic-form="isolated" 
d="M133 -103v234q1 74 24.5 135.5t65 110t98 84.5t123.5 58l-377 553l194 131l387 -567q36 39 36 108v448h235l1 -170q0 -53 1 -106.5t-2 -107t-12 -106t-27 -103.5q-17 -45 -45 -82.5t-57 -73.5q63 -129 66 -232.5t-46.5 -175t-146.5 -107.5t-233 -31h-285zM355 1293
q-75 0 -142 -2.5t-141 -19.5l-18 85l82 22q-26 39 -29 75.5t10.5 66.5t39.5 51.5t58 31.5t66.5 5.5t64.5 -26.5l-23 -86q-13 5 -28.5 8.5t-30 2.5t-27 -7.5t-20.5 -19.5q-11 -17 -7.5 -34.5t14.5 -31.5q14 -17 32.5 -23.5t39 -8t41.5 0.5t40 2zM501 131q39 -1 69 9.5
t43.5 34t6.5 60t-41 87.5q-42 -8 -76.5 -22t-61.5 -36t-45.5 -54.5t-28.5 -78.5h134z" />
    <glyph glyph-name="uniFEF8" unicode="&#xfee0;&#xfe84;" horiz-adv-x="1053" arabic-form="final" 
d="M920 1192v-824q4 -32 17 -56.5t31 -41t40.5 -25.5t45.5 -9v-234q-94 0 -173 43.5t-128 115.5q-58 -51 -126.5 -82.5t-137.5 -50t-133.5 -25.5t-115 -8t-82 1t-34.5 3l67 242q34 -1 74.5 0.5t82.5 6.5t84 14.5t80 24.5q-28 90 -82.5 184.5t-121 190t-136.5 189.5t-129 183
l191 161q34 -51 82.5 -112t100 -128t99.5 -139t82.5 -144.5t49.5 -144.5t-1 -139q38 52 38 126v678h235zM355 1293q-75 0 -142 -2.5t-141 -19.5l-18 85l82 22q-26 39 -29 75.5t10.5 66.5t39.5 51.5t58 31.5t66.5 5.5t64.5 -26.5l-23 -86q-13 5 -28.5 8.5t-30 2.5t-27 -7.5
t-20.5 -19.5q-11 -17 -7.5 -34.5t14.5 -31.5q14 -17 32.5 -23.5t39 -8t41.5 0.5t40 2z" />
    <glyph glyph-name="uniFEF9" unicode="&#xfedf;&#xfe88;" horiz-adv-x="989" arabic-form="isolated" 
d="M133 -103v234q1 74 24.5 135.5t65 110t98 84.5t123.5 58l-377 553l194 131l387 -567q36 39 36 108v448h235l1 -170q0 -53 1 -106.5t-2 -107t-12 -106t-27 -103.5q-17 -45 -45 -82.5t-57 -73.5q63 -129 66 -232.5t-46.5 -175t-146.5 -107.5t-233 -31h-285zM359 -505
q-75 0 -142.5 -3t-140.5 -19l-18 85l82 22q-26 39 -28.5 75.5t11 66.5t39.5 51.5t58 31t66.5 5t64.5 -26.5l-25 -84q-13 5 -28 8t-29.5 2t-27.5 -7t-21 -20q-10 -17 -6 -34.5t15 -31.5q13 -16 31.5 -23t39 -8.5t41.5 0.5t40 2zM501 131q39 -1 69 9.5t43.5 34t6.5 60
t-41 87.5q-42 -8 -76.5 -22t-61.5 -36t-45.5 -54.5t-28.5 -78.5h134z" />
    <glyph glyph-name="uniFEFA" unicode="&#xfee0;&#xfe88;" horiz-adv-x="1053" arabic-form="final" 
d="M920 1192v-824q4 -32 17 -56.5t31 -41t40.5 -25.5t45.5 -9v-234q-94 0 -173 43.5t-128 115.5q-58 -51 -126.5 -82.5t-137.5 -50t-133.5 -25.5t-115 -8t-82 1t-34.5 3l67 242q34 -1 74.5 0.5t82.5 6.5t84 14.5t80 24.5q-28 90 -82.5 184.5t-121 190t-136.5 189.5t-129 183
l191 161q34 -51 82.5 -112t100 -128t99.5 -139t82.5 -144.5t49.5 -144.5t-1 -139q38 52 38 126v678h235zM359 -408q-75 0 -142 -2.5t-141 -19.5l-18 86l82 21q-26 39 -28.5 75t11 66.5t39.5 52t58 31.5t66.5 5.5t64.5 -26.5l-25 -85q-13 5 -28 8t-29.5 2t-27.5 -7t-21 -20
q-10 -17 -6 -34.5t15 -31.5q13 -17 31.5 -23.5t39 -8t41.5 0t40 1.5z" />
    <glyph glyph-name="uniFEFB" unicode="&#xfedf;&#xfe8e;" horiz-adv-x="989" arabic-form="isolated" 
d="M133 -103v234q1 74 24.5 135.5t65 110t98 84.5t123.5 58l-377 553l194 131l387 -567q36 39 36 108v448h235l1 -170q0 -53 1 -106.5t-2 -107t-12 -106t-27 -103.5q-17 -45 -45 -82.5t-57 -73.5q63 -129 66 -232.5t-46.5 -175t-146.5 -107.5t-233 -31h-285zM501 131
q39 -1 69 9.5t43.5 34t6.5 60t-41 87.5q-42 -8 -76.5 -22t-61.5 -36t-45.5 -54.5t-28.5 -78.5h134z" />
    <glyph glyph-name="uniFEFC" unicode="&#xfee0;&#xfe8e;" horiz-adv-x="1053" arabic-form="final" 
d="M920 1192v-824q4 -32 17 -56.5t31 -41t40.5 -25.5t45.5 -9v-234q-94 0 -173 43.5t-128 115.5q-58 -51 -126.5 -82.5t-137.5 -50t-133.5 -25.5t-115 -8t-82 1t-34.5 3l67 242q34 -1 74.5 0.5t82.5 6.5t84 14.5t80 24.5q-28 90 -82.5 184.5t-121 190t-136.5 189.5t-129 183
l191 161q34 -51 82.5 -112t100 -128t99.5 -139t82.5 -144.5t49.5 -144.5t-1 -139q38 52 38 126v678h235z" />
    <glyph glyph-name="uniFDF2" unicode="&#xfedf;&#xfee0;&#xfeea;" horiz-adv-x="1844" arabic-form="isolated" 
d="M1284 1087v-719q0 -32 11 -56t29 -41t41.5 -26t47.5 -9t47.5 9t42 26t29.5 41t11 56v824h234v-827q0 -75 -29 -141t-78.5 -115t-115.5 -78t-141 -29q-68 -1 -131.5 24.5t-113.5 71.5q-52 -47 -113 -70t-129 -26q-74 -3 -140.5 26t-116.5 80t-79 118t-29 139v176
q0 36 -11 62t-29.5 43t-42 24.5t-47.5 6.5q-25 -1 -48.5 -10.5t-41.5 -27t-29 -42t-11 -56.5v-173q0 -32 11 -56t29 -40.5t41.5 -25.5t48.5 -10h28l-76 -231q-67 9 -124.5 40.5t-100 79.5t-67 109.5t-24.5 130.5v181q0 75 28.5 141t78 115.5t116 78t141.5 28.5t141 -28.5
t115.5 -78t78.5 -115.5t29 -141v-178q0 -31 11 -55.5t29 -41t41 -25.5t47 -10q24 1 47 10t41 25.5t29 41t11 55.5v626zM1449 1473v-165q0 -34 -13.5 -64.5t-36.5 -53t-54 -35.5t-66 -13q-37 0 -69 14t-55 39q-23 -25 -54.5 -39t-68.5 -14q-35 0 -66 13t-54 35.5t-36.5 53
t-13.5 64.5v88l92 13v-78q0 -36 20.5 -62t48.5 -26h18q28 0 48 26t20 62v98l92 12v-110q0 -36 20 -62t48 -26h18q29 0 48.5 26t19.5 62v130z" />
    <glyph glyph-name="uniFD3E" unicode="&#x652;&#x64e;" horiz-adv-x="1135" 
d="M1075 -612q0 -15 -24 -15q-76 0 -229 151q-201 196 -314 499q-209 3 -209 55q137 144 137 223q-62 0 -133.5 -73.5t-81.5 -73.5q-38 0 -55 163q-111 54 -111 95q0 46 105 108q11 156 49 156q153 -144 227 -144q-7 77 -78 146t-71 78q0 16 61 35q69 21 154 24
q72 217 195 388q95 133 204 219q87 69 123 69q20 0 20 -23q0 -10 -73 -91q-90 -101 -147 -208q-89 -164 -119 -364q100 -16 100 -45q-141 -142 -141 -221q72 0 215 147q18 0 37 -53t22 -111q106 -55 106 -100q0 -37 -100 -96q-8 -160 -55 -160l-68 65q-69 68 -153 76
q0 -71 73.5 -143t73.5 -84q0 -23 -108 -45q32 -163 130.5 -336.5t217.5 -276.5q20 -17 20 -34zM680 418q0 53 -38 91t-91 38q-54 0 -91.5 -38t-37.5 -91q0 -52 37.5 -88.5t91.5 -36.5q53 0 91 36.5t38 88.5z" />
    <glyph glyph-name="copyright" unicode="&#x652;&#x64b;" horiz-adv-x="1708" 
d="M50 -470h1608v-311h-1608v311zM834 -372q-13 -8 -27.5 -16.5t-30.5 -15.5t-31 -12t-30 -5q-19 0 -34 12.5t-27 40.5q-11 -8 -19 -13t-15.5 -9.5t-15.5 -7.5t-18 -6q-12 -4 -20 -4q-11 0 -20.5 7t-9.5 21q0 4 1.5 9t3.5 10q11 25 30 47.5t42.5 39.5t48 27t46.5 10
q17 0 30 -10t13 -32q0 -8 -6 -18.5t-17 -22.5q-13 -12 -22 -27.5t-9 -28.5q0 -9 5.5 -13t14.5 -4q13 0 30.5 6t34.5 14t31.5 15.5t20.5 11.5q5 23 20 42.5t34.5 33.5t39.5 22.5t35 8.5q9 0 12.5 -3.5t3.5 -7.5q0 -7 -6.5 -13.5t-18.5 -7.5q-12 -4 -27.5 -11.5t-29 -18.5
t-23 -25t-9.5 -32q0 -20 10 -28t26 -8t36.5 6t39.5 14.5t35.5 17t25.5 13.5q0 22 12 43.5t30 38.5t41 27t45 10q13 0 22 -3t13.5 -7t6.5 -9t2 -9q0 -16 -18 -32t-41 -30.5t-45.5 -25t-32.5 -15.5q10 -14 25 -20.5t35 -6.5q19 0 40 5t43 14.5t43 22t40 26.5q12 9 23.5 20
t24.5 20q2 2 7.5 5t12 6.5t13.5 5.5t12 2q10 0 10 -8q0 -3 -2.5 -10t-6.5 -14q-10 -28 -15.5 -46t-7.5 -29q0 -3 4 -3t12 4t18.5 10t21 13.5t19.5 14.5q3 2 14.5 10t26.5 17t29.5 16t23.5 7q7 0 7 -7q-1 -18 -1 -35q0 -8 0.5 -15.5t2.5 -13.5t6 -9.5t11 -3.5q10 0 19 3.5
t17 8.5t15.5 11t16.5 11l5 -12q-7 -6 -18 -16t-24 -19.5t-26.5 -16.5t-25.5 -7q-9 0 -15.5 3.5t-9.5 9t-4 12t-1 11.5q0 6 0.5 12t0.5 11q0 6 -2 12.5t-9 6.5q-6 0 -17 -6t-24 -15t-27.5 -19t-29.5 -19t-28.5 -15t-24.5 -6q-7 1 -13.5 4.5t-6.5 11.5q0 14 2.5 27.5
t11.5 38.5q0 1 -9.5 -6t-26.5 -17.5t-39.5 -22.5t-47.5 -23t-51 -18t-51 -7t-47 10t-31 29q-11 -5 -28.5 -14t-38.5 -17t-42.5 -14t-40.5 -6q-21 0 -37.5 10t-22.5 38zM317 -120q5 22 15.5 39t28.5 17q6 0 12 -2.5t6 -10.5q0 -6 -5 -15.5t-10 -17.5l-60 -118q65 3 129 22
t116 60q22 19 38 26.5t27 7.5q15 0 15 -13q0 -12 -14 -29.5t-45 -33.5q-20 -21 -38.5 -44t-33.5 -50.5t-24.5 -59.5t-12.5 -70q0 -12 -9 -12q-8 0 -11.5 8t-3.5 28q0 45 14 86.5t35 76.5q-47 -15 -95.5 -22t-99.5 -7l-49 -99q-9 -19 -24 -33t-35 -14q-15 0 -31 11.5
t-28.5 30t-21.5 42t-9 47.5q0 21 10.5 35t33.5 14q4 0 7.5 -0.5t7.5 -1.5q29 -3 57.5 -6t58.5 -3zM674 -755h56v197l196 -197h67v259h-56v-197l-193 197h-70v-259zM1047 -755h265v47h-204v66h184v47h-184v53h198v46h-259v-259zM1351 -496v-47h112v-212h55v212h113v47h-280z
M257 -253q-66 2 -132 13q-8 -6 -8 -22q0 -14 6 -32t16 -34.5t22 -28t25 -11.5q9 0 17.5 7.5t16.5 25.5zM723 -266q-3 1 -6 1h-6q-23 0 -44 -10.5t-40 -27t-34.5 -36t-26.5 -37.5q25 0 47.5 10t42 26t36.5 35.5t31 38.5zM536 -678v-77h78v77h-78zM1173 -246q-31 -3 -61 -23.5
t-48 -61.5q25 11 45.5 21.5t36 20.5t24 18.5t8.5 15.5q0 6 -5 9zM699 2023h1l2 -2v-209h1q96 68 234 68q176 0 345 -106q43 -27 97 -73q54 -52 70 -72q18 -20 18 -22l-1 -1q-1 0 -75 74q-59 53 -97 76q-47 31 -97 53q-127 56 -253 56q-148 0 -242 -75v-109l1 -420
q33 -45 85 -104q83 -89 165 -164l126 -117v0q16 4 30 4q34 0 88 -29q29 -13 44 -13q16 0 23 14v6q0 37 -149 177q-98 93 -158 147q-49 43 -130 124q-63 67 -76 91q-23 35 -23 63q0 43 48 58q9 2 17 2q22 0 65 -22q22 -10 38 -10h4q26 0 70 40l81 74q8 2 55 7v0q3 0 4 -2
q-1 -3 -24 -23l-107 -100q-37 -41 -37 -60q0 -3 3 -4h2q21 2 57 30q20 16 117 107q49 8 56 8q3 -1 3 -2v-2q-3 -4 -126 -116q-58 -54 -58 -86v-1h1q12 5 36 8q56 32 75 90q4 14 7 14q8 7 38 15l5 1h1q3 0 3 -3q-14 -36 -14 -65v-8l2 -20v0q38 6 60 25q1 0 35 34
q51 41 112 41q71 0 131 -59v0h-1q-38 33 -68 43q-27 9 -53 9h-1q-57 0 -98 -40q-23 -26 -23 -61q0 -26 13 -52l2 -1q9 6 9 16q0 8 -14 15q-8 7 -8 23q0 13 4 13q34 13 41 13h1q7 0 7 -16q0 -65 -69 -100q-6 -2 -9 -2q-14 0 -20 55v9q0 24 9 46h-1q-10 -7 -31 -14
q-20 -4 -27 -4v-1q9 -56 60 -128q26 -38 123 -144q90 -95 95 -102v-1q0 -6 -36 -6h-1q-17 0 -31 19l-166 178q-47 52 -104 109q-39 38 -80 38q-14 0 -50 -9l-4 -1h-4q-7 0 -9 10v2q2 25 25 59l1 1v1q-30 -4 -51 -9q-12 -4 -19 -4q-9 0 -10 11v0q0 20 23 58l5 6v0
q-18 -3 -34 -3q-42 0 -79 29q-12 7 -19 7q-13 0 -19 -17l-1 -8q0 -53 145 -190q43 -40 193 -178q55 -50 118 -113q86 -87 86 -130q0 -26 -28 -38q-9 -3 -21 -3q-30 0 -89 33q-39 18 -64 18h-3q-6 0 -22 -3v0q57 -58 74 -83q62 -78 62 -149q0 -58 -40 -86q-18 -9 -35 -9
q-37 0 -63 34q-3 5 -5 9v0q0 -9 -13 -47q-32 -82 -101 -119q-50 -27 -111 -27q-98 0 -159 76q-22 32 -26 79q0 2 1 2q-3 16 -5 43h-1v639q0 1 -19 30q-82 133 -82 255q0 138 90 243l11 12v186q0 10 7 17q26 38 31 43zM585 1545q0 -93 54 -183q10 -21 20 -35v421
q-74 -90 -74 -203zM1308 1731l1 -2v-2q-3 -10 -3 -22l1 -35q0 -33 -24 -33l-46 6q-4 0 -4 -7v-40q0 -21 -19 -28q-4 -2 -12 -2q-16 0 -16 4v3q3 11 3 17v0l-1 31q0 33 36 33l30 -1q7 1 7 7v41q0 18 16 26q18 4 31 4zM1102 1420q-25 -37 -61 -55v-1h5q35 0 70 -27v0v1
q-15 28 -15 64l2 18v0h-1zM1034 1331q4 0 4 -4q-4 -7 -4 -11v-4q0 -6 6 -46v-7q0 -18 -16 -24q-21 -5 -28 -5q-4 0 -5 3v1l2 9v1l-7 45v10q0 25 47 32h1zM1150 1211q4 0 4 -4q-3 -8 -3 -12v-1q0 -9 5 -46v-9q0 -23 -28 -27l-16 -1q-5 0 -5 3l2 8v4l-6 37q-1 6 -1 14v0
q0 21 25 29q16 5 23 5zM703 1178v-488v-83q0 -11 9 -51q9 -31 19 -45q27 -48 94 -72q31 -9 59 -9q80 0 137 66q18 24 28 48q14 37 14 46l3 18q-7 21 -18 92q-10 43 -20 67q-2 4 -2 8v3q0 12 22 36q2 2 3 2h1q7 0 23 -46q6 -15 13 -58q6 -61 12 -74q14 -38 52 -38q22 0 36 11
q8 8 8 22q0 59 -158 206q-19 18 -112 105q-47 43 -130 127q0 1 -25 27q-39 43 -68 80zM856 314q7 0 16 -21q1 -6 60 -60q62 -49 68 -78l2 -13q0 -28 -38 -57l-67 -55q-4 -5 -4 -9q0 -9 26 -30q57 -50 68 -63q16 -22 16 -47q0 -38 -50 -75l-5 -2q-10 0 -22 26q-19 24 -40 39
q-54 40 -61 64q-5 11 -5 24v3q0 39 65 96q26 25 26 32v2q0 9 -29 33l-60 55q-20 23 -20 48q0 24 25 54q19 27 27 33z" />
    <glyph glyph-name="uni0622" unicode="&#x622;" horiz-adv-x="421" arabic-form="isolated" 
d="M328 1192v-820q0 -50 -2.5 -102.5t-12.5 -103t-28.5 -96t-49.5 -79.5l-155 88q9 38 12.5 87.5t1.5 115.5v910h234zM-24 1231q-1 80 56.5 152.5t216 7t242.5 46.5q-40 -237 -231.5 -157t-283.5 -49z" />
    <glyph glyph-name="uniFE82" unicode="&#x622;" horiz-adv-x="465" arabic-form="final" 
d="M102 1192h234v-824q0 -32 11 -56.5t29.5 -41t42 -25.5t47.5 -9v-234q-75 0 -141.5 28.5t-116 77.5t-78 115.5t-28.5 141.5v827zM-32 1231q-1 80 56.5 152.5t215.5 7t243 46.5q-40 -237 -232 -157t-283 -49z" />
    <glyph glyph-name="uni0623" unicode="&#x623;" horiz-adv-x="425" arabic-form="isolated" 
d="M332 1192v-820q0 -50 -2.5 -102.5t-12 -103t-28 -96t-50.5 -79.5l-155 88q9 38 12.5 87.5t1.5 115.5v910h234zM355 1293q-75 0 -142 -2.5t-141 -19.5l-18 85l82 22q-26 39 -29 75.5t10.5 66.5t39.5 51.5t58 31.5t66.5 5.5t64.5 -26.5l-23 -86q-13 5 -28.5 8.5t-30 2.5
t-27 -7.5t-20.5 -19.5q-11 -17 -7.5 -34.5t14.5 -31.5q14 -17 32.5 -23.5t39 -8t41.5 0.5t40 2z" />
    <glyph glyph-name="uniFE84" unicode="&#x623;" horiz-adv-x="474" arabic-form="final" 
d="M111 1192h234v-824q0 -32 11 -56.5t29.5 -41t42 -25.5t47.5 -9v-234q-75 0 -141.5 28.5t-116 77.5t-78 115.5t-28.5 141.5v827zM365 1293q-76 0 -143.5 -2.5t-140.5 -19.5l-17 85l81 22q-26 39 -28.5 75.5t11 66.5t39.5 51.5t58 31.5t66.5 5.5t64.5 -26.5l-25 -86
q-12 5 -27 8.5t-30 2.5t-28 -7.5t-21 -19.5q-10 -17 -6 -34.5t15 -31.5q14 -17 32.5 -23.5t38.5 -8t41 0.5t40 2z" />
    <glyph glyph-name="uni0624" unicode="&#x624;" horiz-adv-x="862" arabic-form="isolated" 
d="M124 -115q58 -23 123.5 -30.5t124 7t102 53.5t56.5 108q-56 -21 -112 -22t-107.5 15t-96 46.5t-77.5 72.5t-51.5 95t-18.5 112v204q0 75 28.5 141t78 115.5t116 78t141.5 28.5t141 -28.5t115.5 -78t78.5 -115.5t29 -141v-184q0 -108 -10.5 -210.5t-37.5 -191t-74.5 -159
t-122 -113.5t-179.5 -54.5t-247 17.5v234zM591 1025q-51 0 -98 -0.5t-93 -3t-93 -8.5t-96 -18l-23 115l110 29q-35 52 -39 100.5t14 89t53 69.5t77.5 42t89 7t86.5 -35l-33 -115q-17 7 -37 11.5t-39.5 3.5t-37 -9.5t-27.5 -27.5q-14 -23 -9.5 -46t20.5 -41q18 -23 43 -32
t52 -11t55 0.5t53 2.5zM302 541v-173q0 -32 11 -56.5t29 -41.5t41 -26.5t48 -10.5q24 -1 47.5 6.5t42 24t29.5 42.5t11 62v173q0 36 -11 62t-29.5 43t-42 24.5t-47.5 6.5q-25 -1 -48 -10.5t-41 -27t-29 -42t-11 -56.5z" />
    <glyph glyph-name="uniFE86" unicode="&#x624;" horiz-adv-x="933" arabic-form="final" 
d="M934 2h-174q-28 -119 -91.5 -198t-149.5 -121.5t-188 -50t-207 18.5v234q55 -23 118 -31t120 4t101 46.5t62 97.5q-39 -7 -87.5 -6t-99.5 12.5t-99.5 35t-87 63.5t-61.5 98t-23 137v204q0 75 28.5 141t78 115.5t116 78t141.5 28.5t141 -28.5t115.5 -78t78.5 -115.5
t29 -141v-138t-0.5 -86t-1 -51.5t-1.5 -34.5h142v-234zM591 1025q-51 0 -98 -0.5t-93 -3t-93 -8.5t-96 -18l-23 115l110 29q-35 52 -39 100.5t14 89t53 69.5t77.5 42t89 7t86.5 -35l-33 -115q-17 7 -37 11.5t-39.5 3.5t-37 -9.5t-27.5 -27.5q-14 -23 -9.5 -46t20.5 -41
q18 -23 43 -32t52 -11t55 0.5t53 2.5zM302 541v-173q0 -32 11 -56.5t29 -41.5t41 -26.5t48 -10.5h130v308q0 36 -11 62t-29.5 43t-42 24.5t-47.5 6.5q-25 -1 -48 -10.5t-41 -27t-29 -42t-11 -56.5z" />
    <glyph glyph-name="uni0625" unicode="&#x625;" horiz-adv-x="448" arabic-form="isolated" 
d="M350 1192v-820q0 -50 -2.5 -102.5t-12.5 -103t-28.5 -96t-49.5 -79.5l-155 88q9 38 12.5 87.5t1.5 115.5v910h234zM329 -408q-75 0 -142 -2.5t-141 -19.5l-17 86l81 21q-26 39 -28.5 75t10.5 66.5t39.5 52t58.5 31.5t66.5 5.5t64.5 -26.5l-24 -85q-13 5 -28.5 8t-30 2
t-27 -7t-20.5 -20q-11 -17 -7.5 -34.5t14.5 -31.5q14 -17 33 -23.5t39 -8t41 0t40 1.5z" />
    <glyph glyph-name="uniFE88" unicode="&#x625;" horiz-adv-x="470" arabic-form="final" 
d="M106 1192h234v-824q0 -32 11 -56.5t29.5 -41t42 -25.5t47.5 -9v-234q-75 0 -141.5 28.5t-116 77.5t-78 115.5t-28.5 141.5v827zM398 -408q-75 0 -142 -2.5t-141 -19.5l-18 86l82 21q-26 39 -28.5 75t11 66.5t39.5 52t58 31.5t66.5 5.5t64.5 -26.5l-25 -85q-13 5 -28 8
t-29 2t-27 -7t-21 -20q-11 -17 -7 -34.5t15 -31.5q13 -17 31.5 -23.5t39 -8t41.5 0t40 1.5z" />
    <glyph glyph-name="uni0626" unicode="&#x626;" horiz-adv-x="1346" arabic-form="isolated" 
d="M472 2q-95 2 -160 35t-105.5 89t-58.5 130t-18 159l207 82q0 -41 9 -87t32 -84t62.5 -63.5t99.5 -26.5h374q46 0 74.5 16.5t41 40.5t9.5 52.5t-20 52.5t-47 40t-72 15l-126 -1q-58 -3 -102 7.5t-74.5 31t-48.5 48.5t-24 61q-12 59 1 112t42 99.5t70.5 87.5t88 77.5
t93.5 67.5t87 58l143 -186q-85 -39 -161 -94t-136 -136q39 0 78 0.5t77 -1t76 -7.5t75 -18q68 -23 114 -64t71.5 -91.5t31.5 -107.5t-6 -113t-41 -107t-74 -90t-104.5 -62t-132.5 -23h-446zM379 631q-51 0 -98 -0.5t-93 -3t-92.5 -8.5t-95.5 -18l-23 115l109 28
q-35 52 -38.5 101t14.5 89t53 69.5t77.5 42t88.5 7t86 -35.5l-32 -114q-17 7 -37 11.5t-40 3t-37 -9.5t-28 -27q-13 -23 -8.5 -46t19.5 -41q19 -23 43.5 -32t52 -11t55.5 0.5t53 2.5z" />
    <glyph glyph-name="uniFE8A" unicode="&#x626;" horiz-adv-x="1307" arabic-form="final" 
d="M1308 2h-130q3 -76 -29.5 -145t-90 -128t-134.5 -105.5t-162.5 -77t-174.5 -43t-170 -3.5q-69 6 -123.5 30.5t-96 62.5t-69 87t-43 104.5t-18.5 115t6 117.5l212 83q-18 -112 0.5 -184.5t61 -113t102.5 -54t124.5 -7.5t126.5 27t109.5 48.5t73.5 58.5t17 56t-58.5 41
t-152.5 14l-70 -1l85 252l604 -1v-234zM443 236q-51 0 -98 -0.5t-93 -3t-92.5 -8.5t-95.5 -18l-24 115l110 28q-35 52 -39 100.5t14 89t53 69.5t78 42t89 7.5t86 -35.5l-33 -114q-17 7 -37 11t-39.5 3t-37 -9.5t-27.5 -26.5q-14 -23 -9.5 -46t20.5 -41q19 -23 43.5 -32
t52 -11t55.5 0.5t53 2.5z" />
    <glyph glyph-name="uniFE8B" unicode="&#x626;" horiz-adv-x="430" arabic-form="initial" 
d="M364 750v-385q0 -75 -29 -141.5t-78.5 -115.5t-116 -77.5t-141.5 -28.5v234q24 0 47.5 9t42 25.5t30 41t11.5 56.5v382h234zM365 881q-51 0 -98 -0.5t-93.5 -3.5t-93 -9t-95.5 -17l-23 115l109 28q-35 52 -38.5 100.5t14 89t52.5 69.5t78 42t89 7.5t86 -35.5l-32 -114
q-17 7 -37 11.5t-40 3t-37.5 -10t-28.5 -27.5q-13 -23 -8 -45.5t21 -41.5q18 -22 42.5 -31t51.5 -11.5t55 0t54 2.5z" />
    <glyph glyph-name="uniFE8C" unicode="&#x626;" horiz-adv-x="492" arabic-form="medial" 
d="M364 368q0 -32 11 -56.5t29 -41t41.5 -25.5t47.5 -9v-234q-72 0 -135 25.5t-112 70.5q-49 -45 -112 -70.5t-135 -25.5v234q24 0 47.5 9t42 25.5t30 41t11.5 56.5v382h234v-382zM425 881q-50 0 -97 -0.5t-93.5 -3.5t-93 -9t-95.5 -17l-23 115l109 28q-35 52 -38.5 100.5
t14 89t52.5 69.5t78 42t89 7.5t86 -35.5l-32 -114q-17 7 -37 11.5t-40 3t-37 -10t-28 -27.5q-14 -23 -9 -45.5t21 -41.5q18 -22 42.5 -31t51.5 -11.5t55 0t54 2.5z" />
    <glyph glyph-name="uni0627" unicode="&#x627;" horiz-adv-x="452" arabic-form="isolated" 
d="M345 1192v-820q0 -50 -2.5 -102.5t-12 -103t-28 -96t-50.5 -79.5l-155 88q10 38 13.5 87.5t1.5 115.5v910h233z" />
    <glyph glyph-name="uniFE8E" unicode="&#x627;" horiz-adv-x="474" arabic-form="final" 
d="M111 1192h234v-824q0 -32 11 -56.5t29.5 -41t42 -25.5t47.5 -9v-234q-75 0 -141.5 28.5t-116 77.5t-78 115.5t-28.5 141.5v827z" />
    <glyph glyph-name="uni0628" unicode="&#x628;" horiz-adv-x="1332" arabic-form="isolated" 
d="M1107 754q41 -31 72.5 -75.5t52.5 -96.5q30 -75 32.5 -147.5t-20.5 -137.5t-69.5 -119.5t-114.5 -94.5q-83 -48 -184.5 -72t-207.5 -24q-113 0 -221 27t-192.5 82t-136 136.5t-51.5 191.5v35h234v-31q0 -54 31.5 -94.5t83.5 -67.5t117.5 -41t134.5 -14q59 0 116.5 9.5
t106 29.5t84 50t50.5 71q8 35 6 66.5t-12 60.5t-27.5 56.5t-40.5 55.5zM666 -158l169 -168l-169 -167l-167 167z" />
    <glyph glyph-name="uniFE90" unicode="&#x628;" horiz-adv-x="1331" arabic-form="final" 
d="M1202 368q0 -32 11.5 -56.5t29.5 -41t41.5 -25.5t47.5 -9v-234q-72 0 -135 25.5t-111 70.5q-58 -41 -132.5 -69.5t-157.5 -42.5t-169 -13.5t-167 17.5t-152.5 52t-125 88t-84.5 126.5t-31 167.5v35h235v-31q0 -54 29 -94.5t77.5 -68.5t111.5 -42.5t132 -16.5q9 0 36 3
t62 10.5t74 21t71 33t53 47t21 63.5v366h233v-382zM645 -172l168 -168l-168 -167l-167 167z" />
    <glyph glyph-name="uniFE91" unicode="&#x628;" horiz-adv-x="430" arabic-form="initial" 
d="M364 750v-385q0 -75 -29 -141.5t-78.5 -115.5t-116 -77.5t-141.5 -28.5v234q24 0 47.5 9t42 25.5t30 41t11.5 56.5v382h234zM189 -127l169 -168l-169 -167l-167 167z" />
    <glyph glyph-name="uniFE92" unicode="&#x628;" horiz-adv-x="492" arabic-form="medial" 
d="M364 368q0 -32 11 -56.5t29 -41t41.5 -25.5t47.5 -9v-234q-72 0 -135 25.5t-112 70.5q-49 -45 -112 -70.5t-135 -25.5v234q24 0 47.5 9t42 25.5t30 41t11.5 56.5v382h234v-382zM244 -127l169 -168l-169 -167l-167 167z" />
    <glyph glyph-name="uni067E" unicode="&#x67e;" horiz-adv-x="1332" arabic-form="isolated" 
d="M1107 754q41 -31 72.5 -75.5t52.5 -96.5q30 -75 32.5 -147.5t-20.5 -137.5t-69.5 -119.5t-114.5 -94.5q-83 -48 -184.5 -72t-207.5 -24q-113 0 -221 27t-192.5 82t-136 136.5t-51.5 191.5v35h234v-31q0 -54 31.5 -94.5t83.5 -67.5t117.5 -41t134.5 -14q59 0 116.5 9.5
t106 29.5t84 50t50.5 71q8 35 6 66.5t-12 60.5t-27.5 56.5t-40.5 55.5zM379 -295l168 167l141 -138l139 138l168 -167l-168 -167l-139 140l-141 -140zM522 -597l167 167l168 -167l-168 -168z" />
    <glyph glyph-name="uniFB57" unicode="&#x67e;" horiz-adv-x="1331" arabic-form="final" 
d="M1202 368q0 -32 11.5 -56.5t29.5 -41t41.5 -25.5t47.5 -9v-234q-72 0 -135 25.5t-111 70.5q-58 -41 -132.5 -69.5t-157.5 -42.5t-169 -13.5t-167 17.5t-152.5 52t-125 88t-84.5 126.5t-31 167.5v35h235v-31q0 -54 29 -94.5t77.5 -68.5t111.5 -42.5t132 -16.5q9 0 36 3
t62 10.5t74 21t71 33t53 47t21 63.5v366h233v-382zM379 -295l168 167l141 -138l139 138l168 -167l-168 -167l-139 140l-141 -140zM522 -597l167 167l168 -167l-168 -168z" />
    <glyph glyph-name="uniFB58" unicode="&#x67e;" horiz-adv-x="573" arabic-form="initial" 
d="M508 750v-385q0 -75 -29 -141.5t-78.5 -115.5t-116 -77.5t-308.5 -31.5v234q191 3 214.5 12t42 25.5t30 41t11.5 56.5v382h234zM47 -261l134 134l113 -111l111 111l135 -134l-135 -133l-111 112l-113 -112zM161 -502l134 133l134 -133l-134 -135z" />
    <glyph glyph-name="uniFB59" unicode="&#x67e;" horiz-adv-x="624" arabic-form="medial" 
d="M497 368q0 -32 11 -56.5t29 -41t41.5 -25.5t47.5 -9v-234q-72 0 -135 25.5t-112 70.5q-49 -45 -112 -70.5t-296 -28.5v234q185 3 208.5 12t42 25.5t30 41t11.5 56.5v382h234v-382zM77 -262l134 134l113 -111l111 111l135 -134l-135 -133l-111 112l-113 -112zM191 -503
l134 133l134 -133l-134 -135z" />
    <glyph glyph-name="uni062A" unicode="&#x62a;" horiz-adv-x="1332" arabic-form="isolated" 
d="M1107 754q41 -31 72.5 -75.5t52.5 -96.5q30 -75 32.5 -147.5t-20.5 -137.5t-69.5 -119.5t-114.5 -94.5q-83 -48 -184.5 -72t-207.5 -24q-113 0 -221 27t-192.5 82t-136 136.5t-51.5 191.5v35h234v-31q0 -54 31.5 -94.5t83.5 -67.5t117.5 -41t134.5 -14q59 0 116.5 9.5
t106 29.5t84 50t50.5 71q8 35 6 66.5t-12 60.5t-27.5 56.5t-40.5 55.5zM675 949l139 139l168 -167l-168 -167l-139 139l-141 -139l-168 167l168 167z" />
    <glyph glyph-name="uniFE96" unicode="&#x62a;" horiz-adv-x="1331" arabic-form="final" 
d="M1202 368q0 -32 11.5 -56.5t29.5 -41t41.5 -25.5t47.5 -9v-234q-72 0 -135 25.5t-111 70.5q-58 -41 -132.5 -69.5t-157.5 -42.5t-169 -13.5t-167 17.5t-152.5 52t-125 88t-84.5 126.5t-31 167.5v35h235v-31q0 -54 29 -94.5t77.5 -68.5t111.5 -42.5t132 -16.5q9 0 36 3
t62 10.5t74 21t71 33t53 47t21 63.5v366h233v-382zM611 949l139 139l168 -167l-168 -167l-139 139l-141 -139l-167 167l167 167z" />
    <glyph glyph-name="uniFE97" unicode="&#x62a;" horiz-adv-x="587" arabic-form="initial" 
d="M520 365q0 -75 -28.5 -141t-77.5 -115.5t-115.5 -78t-141.5 -28.5h-158v234h158q24 0 47 9t41.5 25.5t29.5 41t11 56.5v382h234v-385zM269 1075l139 140l168 -167l-168 -168l-139 139l-140 -139l-168 168l168 167z" />
    <glyph glyph-name="uniFE98" unicode="&#x62a;" horiz-adv-x="492" arabic-form="medial" 
d="M364 368q0 -32 11 -56.5t29 -41t41.5 -25.5t47.5 -9v-234q-72 0 -135 25.5t-112 70.5q-49 -45 -112 -70.5t-135 -25.5v234q24 0 47.5 9t42 25.5t30 41t11.5 56.5v382h234v-382zM104 1215l140 -140l140 140l168 -167l-168 -168l-140 139l-140 -139l-168 168z" />
    <glyph glyph-name="uni062B" unicode="&#x62b;" horiz-adv-x="1332" arabic-form="isolated" 
d="M1107 754q41 -31 72.5 -75.5t52.5 -96.5q30 -75 32.5 -147.5t-20.5 -137.5t-69.5 -119.5t-114.5 -94.5q-83 -48 -184.5 -72t-207.5 -24q-113 0 -221 27t-192.5 82t-136 136.5t-51.5 191.5v35h234v-31q0 -54 31.5 -94.5t83.5 -67.5t117.5 -41t134.5 -14q59 0 116.5 9.5
t106 29.5t84 50t50.5 71q8 35 6 66.5t-12 60.5t-27.5 56.5t-40.5 55.5zM675 949l139 139l168 -167l-168 -167l-139 139l-141 -139l-168 167l168 167zM846 1224l-169 -167l-167 167l167 168z" />
    <glyph glyph-name="uniFE9A" unicode="&#x62b;" horiz-adv-x="1331" arabic-form="final" 
d="M1202 368q0 -32 11.5 -56.5t29.5 -41t41.5 -25.5t47.5 -9v-234q-72 0 -135 25.5t-111 70.5q-58 -41 -132.5 -69.5t-157.5 -42.5t-169 -13.5t-167 17.5t-152.5 52t-125 88t-84.5 126.5t-31 167.5v35h235v-31q0 -54 29 -94.5t77.5 -68.5t111.5 -42.5t132 -16.5q9 0 36 3
t62 10.5t74 21t71 33t53 47t21 63.5v366h233v-382zM611 949l139 139l168 -167l-168 -167l-139 139l-141 -139l-167 167l167 167zM781 1224l-169 -167l-167 167l167 168z" />
    <glyph glyph-name="uniFE9B" unicode="&#x62b;" horiz-adv-x="587" arabic-form="initial" 
d="M520 365q0 -75 -28.5 -141t-77.5 -115.5t-115.5 -78t-141.5 -28.5h-158v234h158q24 0 47 9t41.5 25.5t29.5 41t11 56.5v382h234v-385zM269 1075l139 140l168 -167l-168 -168l-139 139l-140 -139l-168 168l168 167zM439 1350l-168 -167l-167 167l167 168z" />
    <glyph glyph-name="uniFE9C" unicode="&#x62b;" horiz-adv-x="492" arabic-form="medial" 
d="M364 368q0 -32 11 -56.5t29 -41t41.5 -25.5t47.5 -9v-234q-72 0 -135 25.5t-112 70.5q-49 -45 -112 -70.5t-135 -25.5v234q24 0 47.5 9t42 25.5t30 41t11.5 56.5v382h234v-382zM104 1215l140 -140l140 140l168 -167l-168 -168l-140 139l-140 -139l-168 168zM245 1518
l169 -168l-169 -167l-167 167z" />
    <glyph glyph-name="uni062C" unicode="&#x62c;" horiz-adv-x="992" arabic-form="isolated" 
d="M826 293q-50 4 -106.5 2t-112.5 -12t-108 -30t-93.5 -52t-69 -77.5t-34.5 -105.5q-5 -42 4.5 -83t34.5 -75.5t66 -60.5t99 -36q40 -8 84.5 -5t88 11.5t84 20t73.5 19.5l35 -218q-63 -19 -129.5 -34t-133.5 -22t-132.5 -2.5t-126.5 25t-114.5 60t-97.5 102.5
q-42 63 -59.5 152t-4.5 186q12 99 54 175t106.5 132t147.5 93.5t178 58.5q-40 34 -83 57t-90.5 31t-101 -1t-113.5 -39l-5 221q66 54 132 67t130.5 -2t128 -51t126 -80t123 -88.5t119.5 -76.5zM592 179l169 -168l-169 -167l-167 167z" />
    <glyph glyph-name="uniFE9E" unicode="&#x62c;" horiz-adv-x="954" arabic-form="final" 
d="M604 281q-56 -12 -109 -31t-94.5 -50t-68.5 -75.5t-31 -106.5q-3 -42 7 -83t34.5 -75.5t65 -60.5t98.5 -36q40 -8 84 -5t87.5 11.5t84 20t73.5 19.5l35 -218q-63 -19 -129.5 -34t-133 -22t-132.5 -2.5t-126.5 25t-114.5 60t-97 102.5q-42 63 -59.5 152t-5.5 186
q12 99 54 175t106.5 132t148 93.5t178.5 58.5q-47 33 -95 55.5t-96.5 30.5t-97.5 -0.5t-99 -37.5l-6 221q66 54 132 67t130.5 -2t128.5 -51t126.5 -80t123 -88.5t119.5 -76.5l-90 -243q17 -37 50 -56.5t69 -19.5v-234q-66 0 -124 20t-104 57t-78 88t-44 114zM526 161
l169 -168l-169 -167l-167 167z" />
    <glyph glyph-name="uniFE9F" unicode="&#x62c;" horiz-adv-x="1060" arabic-form="initial" 
d="M918 272q-68 1 -130 -19t-124.5 -50.5t-130 -67t-147 -67t-174.5 -50t-213 -16.5v234q76 0 139.5 8.5t129 31t141 62t177.5 101.5q-58 46 -118.5 82.5t-123.5 56t-128 18.5t-132 -31l-1 221q61 50 121 65t119 5t117.5 -39.5t116 -67.5t113.5 -80t111 -78t108 -59.5
t104 -25.5zM372 -127l169 -168l-169 -167l-167 167z" />
    <glyph glyph-name="uniFEA0" unicode="&#x62c;" horiz-adv-x="1140" arabic-form="medial" 
d="M1141 2h-1142v234h678q-42 51 -78 98.5t-71 86.5t-72 66t-82.5 37t-102.5 0.5t-131 -45.5l-4 221q69 57 136 75t133 6q78 -14 143 -59.5t122 -106t107 -127.5t98 -123t95 -92.5t98 -36.5h73v-234zM448 -127l168 -168l-168 -167l-167 167z" />
    <glyph glyph-name="uni0686" unicode="&#x686;" horiz-adv-x="992" arabic-form="isolated" 
d="M826 293q-50 4 -106.5 2t-112.5 -12t-108 -30t-93.5 -52t-69 -77.5t-34.5 -105.5q-5 -42 4.5 -83t34.5 -75.5t66 -60.5t91 -57q29 -21 27.5 -55.5t-25.5 -75.5t-70 -52.5t-94 4t-101.5 55t-97.5 102.5q-42 63 -59.5 152t-4.5 186q12 99 54 175t106.5 132t147.5 93.5
t178 58.5q-40 34 -83 57t-90.5 31t-101 -1t-113.5 -39l-5 221q66 54 132 67t130.5 -2t128 -51t126 -80t123 -88.5t119.5 -76.5zM393 57l134 134l113 -111l111 111l135 -134l-135 -134l-111 112l-113 -112zM507 -184l134 133l134 -133l-134 -135z" />
    <glyph glyph-name="uniFB7B" unicode="&#x686;" horiz-adv-x="954" arabic-form="final" 
d="M604 281q-56 -12 -109 -31t-94.5 -50t-68.5 -75.5t-31 -106.5q-3 -42 2.5 -83t29 -80t63.5 -78.5t54 -62.5t5 -56t-45.5 -62.5t-79 -23.5t-96.5 45.5t-97 102.5q-42 63 -59.5 152t-5.5 186q12 99 54 175t106.5 132t148 93.5t178.5 58.5q-47 33 -95 55.5t-96.5 30.5
t-97.5 -0.5t-99 -37.5l-6 221q66 54 132 67t130.5 -2t128.5 -51t126.5 -80t123 -88.5t119.5 -76.5l-90 -243q17 -37 50 -56.5t69 -19.5v-234q-66 0 -124 20t-104 57t-78 88t-44 114zM370 -93l134 134l113 -111l111 111l135 -134l-135 -133l-111 111l-113 -111zM484 -334
l134 133l134 -133l-134 -135z" />
    <glyph glyph-name="uniFB7C" unicode="&#x686;" horiz-adv-x="1060" arabic-form="initial" 
d="M918 272q-68 1 -130 -19t-124.5 -50.5t-130 -67t-147 -67t-174.5 -50t-213 -16.5v234q76 0 139.5 8.5t129 31t141 62t177.5 101.5q-58 46 -118.5 82.5t-123.5 56t-128 18.5t-132 -31l-1 221q61 50 121 65t119 5t117.5 -39.5t116 -67.5t113.5 -80t111 -78t108 -59.5
t104 -25.5zM169 -295l168 168l141 -139l139 139l168 -168l-168 -167l-139 140l-141 -140zM312 -597l167 167l168 -167l-168 -168z" />
    <glyph glyph-name="uniFB7D" unicode="&#x686;" horiz-adv-x="1140" arabic-form="medial" 
d="M1141 2h-1142v234h678q-42 51 -78 98.5t-71 86.5t-72 66t-82.5 37t-102.5 0.5t-131 -45.5l-4 221q69 57 136 75t133 6q78 -14 143 -59.5t122 -106t107 -127.5t98 -123t95 -92.5t98 -36.5h73v-234zM271 -295l168 168l141 -139l139 139l168 -168l-168 -167l-139 140
l-141 -140zM414 -597l167 167l168 -167l-168 -168z" />
    <glyph glyph-name="uni062D" unicode="&#x62d;" horiz-adv-x="992" arabic-form="isolated" 
d="M826 293q-50 4 -106.5 2t-112.5 -12t-108 -30t-93.5 -52t-69 -77.5t-34.5 -105.5q-5 -42 4.5 -83t34.5 -75.5t66 -60.5t99 -36q40 -8 84.5 -5t88 11.5t84 20t73.5 19.5l35 -218q-63 -19 -129.5 -34t-133.5 -22t-132.5 -2.5t-126.5 25t-114.5 60t-97.5 102.5
q-42 63 -59.5 152t-4.5 186q12 99 54 175t106.5 132t147.5 93.5t178 58.5q-40 34 -83 57t-90.5 31t-101 -1t-113.5 -39l-5 221q66 54 132 67t130.5 -2t128 -51t126 -80t123 -88.5t119.5 -76.5z" />
    <glyph glyph-name="uniFEA2" unicode="&#x62d;" horiz-adv-x="954" arabic-form="final" 
d="M604 281q-56 -12 -109 -31t-94.5 -50t-68.5 -75.5t-31 -106.5q-3 -42 7 -83t34.5 -75.5t65 -60.5t98.5 -36q40 -8 84 -5t87.5 11.5t84 20t73.5 19.5l35 -218q-63 -19 -129.5 -34t-133 -22t-132.5 -2.5t-126.5 25t-114.5 60t-97 102.5q-42 63 -59.5 152t-5.5 186
q12 99 54 175t106.5 132t148 93.5t178.5 58.5q-47 33 -95 55.5t-96.5 30.5t-97.5 -0.5t-99 -37.5l-6 221q66 54 132 67t130.5 -2t128.5 -51t126.5 -80t123 -88.5t119.5 -76.5l-90 -243q17 -37 50 -56.5t69 -19.5v-234q-66 0 -124 20t-104 57t-78 88t-44 114z" />
    <glyph glyph-name="uniFEA3" unicode="&#x62d;" horiz-adv-x="1060" arabic-form="initial" 
d="M918 272q-68 1 -130 -19t-124.5 -50.5t-130 -67t-147 -67t-174.5 -50t-213 -16.5v234q76 0 139.5 8.5t129 31t141 62t177.5 101.5q-58 46 -118.5 82.5t-123.5 56t-128 18.5t-132 -31l-1 221q61 50 121 65t119 5t117.5 -39.5t116 -67.5t113.5 -80t111 -78t108 -59.5
t104 -25.5z" />
    <glyph glyph-name="uniFEA4" unicode="&#x62d;" horiz-adv-x="1140" arabic-form="medial" 
d="M1141 2h-1142v234h678q-42 51 -78 98.5t-71 86.5t-72 66t-82.5 37t-102.5 0.5t-131 -45.5l-4 221q69 57 136 75t133 6q78 -14 143 -59.5t122 -106t107 -127.5t98 -123t95 -92.5t98 -36.5h73v-234z" />
    <glyph glyph-name="uni062E" unicode="&#x62e;" horiz-adv-x="992" arabic-form="isolated" 
d="M826 293q-50 4 -106.5 2t-112.5 -12t-108 -30t-93.5 -52t-69 -77.5t-34.5 -105.5q-5 -42 4.5 -83t34.5 -75.5t66 -60.5t99 -36q40 -8 84.5 -5t88 11.5t84 20t73.5 19.5l35 -218q-63 -19 -129.5 -34t-133.5 -22t-132.5 -2.5t-126.5 25t-114.5 60t-97.5 102.5
q-42 63 -59.5 152t-4.5 186q12 99 54 175t106.5 132t147.5 93.5t178 58.5q-40 34 -83 57t-90.5 31t-101 -1t-113.5 -39l-5 221q66 54 132 67t130.5 -2t128 -51t126 -80t123 -88.5t119.5 -76.5zM331 1268l169 -168l-169 -167l-167 167z" />
    <glyph glyph-name="uniFEA6" unicode="&#x62e;" horiz-adv-x="954" arabic-form="final" 
d="M604 281q-56 -12 -109 -31t-94.5 -50t-68.5 -75.5t-31 -106.5q-3 -42 7 -83t34.5 -75.5t65 -60.5t98.5 -36q40 -8 84 -5t87.5 11.5t84 20t73.5 19.5l35 -218q-63 -19 -129.5 -34t-133 -22t-132.5 -2.5t-126.5 25t-114.5 60t-97 102.5q-42 63 -59.5 152t-5.5 186
q12 99 54 175t106.5 132t148 93.5t178.5 58.5q-47 33 -95 55.5t-96.5 30.5t-97.5 -0.5t-99 -37.5l-6 221q66 54 132 67t130.5 -2t128.5 -51t126.5 -80t123 -88.5t119.5 -76.5l-90 -243q17 -37 50 -56.5t69 -19.5v-234q-66 0 -124 20t-104 57t-78 88t-44 114zM452 1286
l168 -168l-168 -167l-168 167z" />
    <glyph glyph-name="uniFEA7" unicode="&#x62e;" horiz-adv-x="1060" arabic-form="initial" 
d="M918 272q-68 1 -130 -19t-124.5 -50.5t-130 -67t-147 -67t-174.5 -50t-213 -16.5v234q76 0 139.5 8.5t129 31t141 62t177.5 101.5q-58 46 -118.5 82.5t-123.5 56t-128 18.5t-132 -31l-1 221q61 50 121 65t119 5t117.5 -39.5t116 -67.5t113.5 -80t111 -78t108 -59.5
t104 -25.5zM281 1293l168 -168l-168 -167l-167 167z" />
    <glyph glyph-name="uniFEA8" unicode="&#x62e;" horiz-adv-x="1140" arabic-form="medial" 
d="M1141 2h-1142v234h678q-42 51 -78 98.5t-71 86.5t-72 66t-82.5 37t-102.5 0.5t-131 -45.5l-4 221q69 57 136 75t133 6q78 -14 143 -59.5t122 -106t107 -127.5t98 -123t95 -92.5t98 -36.5h73v-234zM406 1236l168 -168l-168 -167l-167 167z" />
    <glyph glyph-name="uni062F" unicode="&#x62f;" horiz-adv-x="763" arabic-form="isolated" 
d="M378 842q54 -44 110 -98.5t102 -116t75.5 -127.5t30.5 -134q1 -75 -27.5 -141.5t-78.5 -116t-117 -78t-142 -28.5h-264v234h260q36 0 62 11t42.5 29.5t24.5 42t7 47.5q-2 33 -24.5 70t-58 75.5t-79.5 77t-87 73.5z" />
    <glyph glyph-name="uniFEAA" unicode="&#x62f;" horiz-adv-x="874" arabic-form="final" 
d="M530 858l226 -545q16 -37 49 -57t70 -20v-234q-72 0 -135 25.5t-112 70.5q-49 -45 -112 -70.5t-134 -25.5h-315v234h311q32 0 56.5 9t36.5 31t9 58.5t-25 90.5l-142 342z" />
    <glyph glyph-name="uni0630" unicode="&#x630;" horiz-adv-x="763" arabic-form="isolated" 
d="M378 842q54 -44 110 -98.5t102 -116t75.5 -127.5t30.5 -134q1 -75 -27.5 -141.5t-78.5 -116t-117 -78t-142 -28.5h-264v234h260q36 0 62 11t42.5 29.5t24.5 42t7 47.5q-2 33 -24.5 70t-58 75.5t-79.5 77t-87 73.5zM226 1210l169 -168l-169 -167l-167 167z" />
    <glyph glyph-name="uniFEAC" unicode="&#x630;" horiz-adv-x="874" arabic-form="final" 
d="M530 858l226 -545q16 -37 49 -57t70 -20v-234q-72 0 -135 25.5t-112 70.5q-49 -45 -112 -70.5t-134 -25.5h-315v234h311q32 0 56.5 9t36.5 31t9 58.5t-25 90.5l-142 342zM399 1284l169 -168l-169 -167l-167 167z" />
    <glyph glyph-name="uni0631" unicode="&#x631;" horiz-adv-x="813" arabic-form="isolated" 
d="M554 754q74 -63 119 -153.5t62 -193.5t8 -211t-43.5 -207t-92.5 -180.5t-138 -131t-181 -60t-221 33.5v234q88 -35 157.5 -32t121.5 32.5t87.5 82t54.5 117.5t22.5 137.5t-8 143t-37.5 134t-66 110.5z" />
    <glyph glyph-name="uniFEAE" unicode="&#x631;" horiz-adv-x="865" arabic-form="final" 
d="M718 355v-57t-2 -62h150v-234h-171q-11 -54 -27.5 -103.5t-41.5 -88.5q-35 -51 -87 -90t-121.5 -61.5t-157 -25.5t-193.5 18v234q58 -23 123.5 -30.5t124 7t101.5 53.5t56 108q7 84 10.5 174t1.5 196v357h234v-395z" />
    <glyph glyph-name="uni0632" unicode="&#x632;" horiz-adv-x="813" arabic-form="isolated" 
d="M554 754q74 -63 119 -153.5t62 -193.5t8 -211t-43.5 -207t-92.5 -180.5t-138 -131t-181 -60t-221 33.5v234q88 -35 157.5 -32t121.5 32.5t87.5 82t54.5 117.5t22.5 137.5t-8 143t-37.5 134t-66 110.5zM290 1095l168 -167l-168 -168l-167 168z" />
    <glyph glyph-name="uniFEB0" unicode="&#x632;" horiz-adv-x="865" arabic-form="final" 
d="M718 355v-57t-2 -62h150v-234h-171q-11 -54 -27.5 -103.5t-41.5 -88.5q-35 -51 -87 -90t-121.5 -61.5t-157 -25.5t-193.5 18v234q58 -23 123.5 -30.5t124 7t101.5 53.5t56 108q7 84 10.5 174t1.5 196v357h234v-395zM593 1209l169 -168l-169 -167l-167 167z" />
    <glyph glyph-name="uni0698" unicode="&#x698;" horiz-adv-x="813" arabic-form="isolated" 
d="M554 754q74 -63 119 -153.5t62 -193.5t8 -211t-43.5 -207t-92.5 -180.5t-138 -131t-181 -60t-221 33.5v234q88 -35 157.5 -32t121.5 32.5t87.5 82t54.5 117.5t22.5 137.5t-8 143t-37.5 134t-66 110.5zM273 1217l141 -140l139 140l168 -167l-168 -168l-139 139l-141 -139
l-168 168zM415 1520l168 -168l-168 -167l-167 167z" />
    <glyph glyph-name="uniFB8B" unicode="&#x698;" horiz-adv-x="865" arabic-form="final" 
d="M718 355v-57t-2 -62h150v-234h-171q-11 -54 -27.5 -103.5t-41.5 -88.5q-35 -51 -87 -90t-121.5 -61.5t-157 -25.5t-193.5 18v234q58 -23 123.5 -30.5t124 7t101.5 53.5t56 108q7 84 10.5 174t1.5 196v357h234v-395zM366 1215l141 -140l139 140l168 -167l-168 -168
l-139 139l-141 -139l-168 168zM508 1518l168 -168l-168 -167l-167 167z" />
    <glyph glyph-name="uni0633" unicode="&#x633;" horiz-adv-x="2019" arabic-form="isolated" 
d="M967 750v-514h132q24 0 47.5 9t42 25.5t29.5 41t11 56.5v382h234v-382q0 -31 11 -55.5t29 -41t41 -25.5t47 -10q24 1 47 10t41 25.5t29 41t11 55.5v382h233v-385q0 -75 -28 -141t-77 -115t-114 -77.5t-139 -29.5q-72 0 -135.5 25.5t-111.5 70.5q-49 -45 -112.5 -70.5
t-135.5 -25.5h-137q-13 -82 -55.5 -148.5t-103.5 -113t-135 -72t-151 -25.5q-84 0 -165 30.5t-144.5 86.5t-102 134t-38.5 174v369h234v-365q0 -50 18.5 -87t49 -61.5t69 -37.5t79.5 -13q40 0 79 12t69.5 37t49 62.5t18.5 87.5v678h234z" />
    <glyph glyph-name="uniFEB2" unicode="&#x633;" horiz-adv-x="2082" arabic-form="final" 
d="M968 750v-514h131q24 0 47.5 9t42 25.5t29.5 41t11 56.5v382h234v-382q0 -31 11 -55.5t29 -41t41 -25.5t47 -10q24 1 47 10t41 25.5t29 41t11 55.5v382h234v-382q0 -32 11 -56.5t29.5 -41t42 -25.5t47.5 -9v-234q-71 0 -134.5 25.5t-112.5 70.5q-48 -45 -110 -69.5
t-132 -26.5q-72 0 -135.5 25.5t-111.5 70.5q-49 -45 -112.5 -70.5t-135.5 -25.5h-136q-13 -82 -55.5 -148.5t-103.5 -113t-135.5 -72t-151.5 -25.5q-84 0 -165 30.5t-144.5 86.5t-102 134t-38.5 174v369h235v-365q0 -50 18.5 -87t48.5 -61.5t68.5 -37.5t79.5 -13t80 12
t69 37t48.5 62.5t18.5 87.5v678h235z" />
    <glyph glyph-name="uniFEB3" unicode="&#x633;" horiz-adv-x="1411" arabic-form="initial" 
d="M1345 750v-385q0 -75 -28.5 -141t-77 -115t-114 -77.5t-139.5 -29.5q-72 0 -135 25.5t-112 70.5q-54 -48 -114.5 -70t-131.5 -26q-68 0 -132 25t-115 71q-49 -45 -112 -70.5t-135 -25.5v234q24 0 47.5 9t42 25.5t30 41t11.5 56.5v382h234v-382q0 -31 11 -55.5t29 -41.5
t41 -26t47 -9t47.5 9t41.5 26t29 41.5t11 55.5v382h234v-382q0 -31 11 -55.5t29 -41t41 -25.5t47 -10q24 1 47 10t41 25.5t29 41t11 55.5v382h234z" />
    <glyph glyph-name="uniFEB4" unicode="&#x633;" horiz-adv-x="1474" arabic-form="medial" 
d="M1345 750v-382q0 -32 11 -56.5t29 -41t41.5 -25.5t48.5 -9v-234q-72 0 -135 25.5t-112 70.5q-49 -45 -110.5 -69.5t-131.5 -26.5q-72 0 -135 25.5t-112 70.5q-54 -48 -114.5 -70t-131.5 -26q-68 0 -132 25t-115 71q-49 -45 -112 -70.5t-135 -25.5v234q24 0 47.5 9
t42 25.5t30 41t11.5 56.5v382h234v-382q0 -31 11 -55.5t29 -41.5t41 -26t47 -9t47.5 9t41.5 26t29 41.5t11 55.5v382h234v-382q0 -31 11 -55.5t29 -41t41 -25.5t47 -10q24 1 47 10t41 25.5t29 41t11 55.5v382h234z" />
    <glyph glyph-name="uni0634" unicode="&#x634;" horiz-adv-x="2019" arabic-form="isolated" 
d="M967 750v-514h132q24 0 47.5 9t42 25.5t29.5 41t11 56.5v382h234v-382q0 -31 11 -55.5t29 -41t41 -25.5t47 -10q24 1 47 10t41 25.5t29 41t11 55.5v382h233v-385q0 -75 -28 -141t-77 -115t-114 -77.5t-139 -29.5q-72 0 -135.5 25.5t-111.5 70.5q-49 -45 -112.5 -70.5
t-135.5 -25.5h-137q-13 -82 -55.5 -148.5t-103.5 -113t-135 -72t-151 -25.5q-84 0 -165 30.5t-144.5 86.5t-102 134t-38.5 174v369h234v-365q0 -50 18.5 -87t49 -61.5t69 -37.5t79.5 -13q40 0 79 12t69.5 37t49 62.5t18.5 87.5v678h234zM1206 1215l141 -140l139 140
l168 -167l-168 -168l-139 139l-141 -139l-168 168zM1348 1518l168 -168l-168 -167l-167 167z" />
    <glyph glyph-name="uniFEB6" unicode="&#x634;" horiz-adv-x="2082" arabic-form="final" 
d="M968 750v-514h131q24 0 47.5 9t42 25.5t29.5 41t11 56.5v382h234v-382q0 -31 11 -55.5t29 -41t41 -25.5t47 -10q24 1 47 10t41 25.5t29 41t11 55.5v382h234v-382q0 -32 11 -56.5t29.5 -41t42 -25.5t47.5 -9v-234q-71 0 -134.5 25.5t-112.5 70.5q-48 -45 -110 -69.5
t-132 -26.5q-72 0 -135.5 25.5t-111.5 70.5q-49 -45 -112.5 -70.5t-135.5 -25.5h-136q-13 -82 -55.5 -148.5t-103.5 -113t-135.5 -72t-151.5 -25.5q-84 0 -165 30.5t-144.5 86.5t-102 134t-38.5 174v369h235v-365q0 -50 18.5 -87t48.5 -61.5t68.5 -37.5t79.5 -13t80 12
t69 37t48.5 62.5t18.5 87.5v678h235zM1206 1215l141 -140l139 140l168 -167l-168 -168l-139 139l-141 -139l-168 168zM1348 1518l168 -168l-168 -167l-167 167z" />
    <glyph glyph-name="uniFEB7" unicode="&#x634;" horiz-adv-x="1411" arabic-form="initial" 
d="M1345 750v-385q0 -75 -28.5 -141t-77 -115t-114 -77.5t-139.5 -29.5q-72 0 -135 25.5t-112 70.5q-54 -48 -114.5 -70t-131.5 -26q-68 0 -132 25t-115 71q-49 -45 -112 -70.5t-135 -25.5v234q24 0 47.5 9t42 25.5t30 41t11.5 56.5v382h234v-382q0 -31 11 -55.5t29 -41.5
t41 -26t47 -9t47.5 9t41.5 26t29 41.5t11 55.5v382h234v-382q0 -31 11 -55.5t29 -41t41 -25.5t47 -10q24 1 47 10t41 25.5t29 41t11 55.5v382h234zM595 1215l140 -140l139 140l168 -167l-168 -168l-139 139l-140 -139l-168 168zM737 1518l169 -168l-169 -167l-167 167z" />
    <glyph glyph-name="uniFEB8" unicode="&#x634;" horiz-adv-x="1474" arabic-form="medial" 
d="M1345 750v-382q0 -32 11 -56.5t29 -41t41.5 -25.5t48.5 -9v-234q-72 0 -135 25.5t-112 70.5q-49 -45 -110.5 -69.5t-131.5 -26.5q-72 0 -135 25.5t-112 70.5q-54 -48 -114.5 -70t-131.5 -26q-68 0 -132 25t-115 71q-49 -45 -112 -70.5t-135 -25.5v234q24 0 47.5 9
t42 25.5t30 41t11.5 56.5v382h234v-382q0 -31 11 -55.5t29 -41.5t41 -26t47 -9t47.5 9t41.5 26t29 41.5t11 55.5v382h234v-382q0 -31 11 -55.5t29 -41t41 -25.5t47 -10q24 1 47 10t41 25.5t29 41t11 55.5v382h234zM595 1215l140 -140l139 140l168 -167l-168 -168l-139 139
l-140 -139l-168 168zM737 1518l169 -168l-169 -167l-167 167z" />
    <glyph glyph-name="uni0635" unicode="&#x635;" horiz-adv-x="2159" arabic-form="isolated" 
d="M968 236q55 67 119.5 138t137.5 136t152 118t163 83.5t170.5 33t174.5 -33.5q49 -20 87.5 -57t65 -84t40.5 -100t14 -104q0 -75 -28.5 -141.5t-78 -116t-115.5 -78t-141 -28.5h-767q-13 -82 -55.5 -148.5t-103.5 -113t-135 -72t-151 -25.5q-84 0 -165 30.5t-144.5 86.5
t-102 134t-38.5 174v338h234v-334q0 -50 18.5 -87t49 -61.5t69 -37.5t79.5 -13t80 12t69 37t48.5 62.5t18.5 87.5v334l235 93v-263zM1724 236q36 0 62 11t43 29.5t24.5 42t6.5 47.5t-10 47t-25.5 41t-41 30t-56.5 15q-42 3 -85 -7t-85 -30t-82.5 -47t-77 -57.5t-68.5 -62
t-57 -59.5h452z" />
    <glyph glyph-name="uniFEBA" unicode="&#x635;" horiz-adv-x="2212" arabic-form="final" 
d="M967 236q54 64 118.5 134t136.5 135t151.5 119t163 86.5t171.5 38.5t177 -26q72 -25 124 -81t78 -125.5t22.5 -144t-42.5 -136.5h145v-234h-1250q-13 -82 -55.5 -148.5t-103.5 -113t-135.5 -72t-150.5 -25.5q-85 0 -166 30.5t-144 86.5t-101.5 134t-38.5 174v338h234
v-334q0 -50 18.5 -87t49 -61.5t69 -37.5t79.5 -13q40 0 79 12t69.5 37t49 62.5t18.5 87.5v334l234 93v-263zM1724 236q36 0 62 11t42.5 29.5t24 42t6.5 47.5t-10 47t-25.5 41t-41 30t-55.5 15q-63 5 -127.5 -19.5t-125 -64.5t-113 -88.5t-90.5 -90.5h453z" />
    <glyph glyph-name="uniFEBB" unicode="&#x635;" horiz-adv-x="1693" arabic-form="initial" 
d="M472 2q-71 0 -124 25.5t-102 70.5q-49 -45 -112 -70.5t-135 -25.5v234q24 0 47.5 9t42 25.5t30 41t11.5 56.5v47l234 94v-141q0 -31 10.5 -55.5t29.5 -41.5t43.5 -26t53.5 -9q53 67 116.5 137.5t135 133.5t150 114.5t163 81t173 32.5t179.5 -30q50 -18 88.5 -54t65 -82
t40.5 -99t14 -104q0 -75 -28.5 -141.5t-78 -116t-115.5 -78t-141 -28.5h-791zM1259 236q36 0 61.5 11t42 29.5t24.5 42t7 47.5t-10 47t-25.5 41t-41 30t-56.5 15q-63 5 -127.5 -19.5t-125 -64.5t-113 -88.5t-90.5 -90.5h454z" />
    <glyph glyph-name="uniFEBC" unicode="&#x635;" horiz-adv-x="1739" arabic-form="medial" 
d="M472 2q-71 0 -124 25.5t-102 70.5q-49 -45 -112 -70.5t-135 -25.5v234q24 0 47.5 9t42 25.5t30 41t11.5 56.5v47l234 94v-141q0 -63 39.5 -97t97.5 -35q54 67 118 137.5t135.5 134.5t150 116t161.5 83t171 35.5t178 -26.5q66 -23 117 -76t79 -120.5t28.5 -142
t-35.5 -141.5h136v-234h-1268zM1258 236q36 0 61.5 11t42 29.5t24.5 42t7 47.5t-10 47t-25.5 41t-40.5 30t-56 15q-63 5 -127.5 -19.5t-125 -64.5t-113 -88.5t-90.5 -90.5h453z" />
    <glyph glyph-name="uni0636" unicode="&#x636;" horiz-adv-x="2159" arabic-form="isolated" 
d="M968 236q55 67 119.5 139t137 137t151.5 118t162.5 83.5t171 32.5t175.5 -35q49 -20 87.5 -57.5t65 -84t40.5 -99.5t14 -104q0 -75 -28.5 -141.5t-78 -116t-115.5 -78t-141 -28.5h-767q-13 -82 -55.5 -148.5t-103.5 -113t-135 -72t-151 -25.5q-84 0 -165 30.5
t-144.5 86.5t-102 134t-38.5 174v338h234v-334q0 -50 18.5 -87t49 -61.5t69 -37.5t79.5 -13t80 12t69 37t48.5 62.5t18.5 87.5v334l235 93v-263zM1724 236q36 0 62 11t43 29.5t24.5 42t6.5 47.5t-10 47t-25.5 41t-41 30t-56.5 15q-42 3 -85 -7t-85 -30t-82.5 -47t-77 -57.5
t-68.5 -62t-57 -59.5h452zM1263 1091l168 -168l-168 -167l-167 167z" />
    <glyph glyph-name="uniFEBE" unicode="&#x636;" horiz-adv-x="2212" arabic-form="final" 
d="M967 236q54 64 118.5 134t136.5 135t151.5 119t163 86.5t171.5 38.5t177 -26q72 -25 124 -81t78 -125.5t22.5 -144t-42.5 -136.5h145v-234h-1250q-13 -82 -55.5 -148.5t-103.5 -113t-135.5 -72t-150.5 -25.5q-85 0 -166 30.5t-144 86.5t-101.5 134t-38.5 174v338h234
v-334q0 -50 18.5 -87t49 -61.5t69 -37.5t79.5 -13q40 0 79 12t69.5 37t49 62.5t18.5 87.5v334l234 93v-263zM1724 236q36 0 62 11t42.5 29.5t24 42t6.5 47.5t-10 47t-25.5 41t-41 30t-55.5 15q-63 5 -127.5 -19.5t-125 -64.5t-113 -88.5t-90.5 -90.5h453zM1272 1118
l169 -168l-169 -167l-167 167z" />
    <glyph glyph-name="uniFEBF" unicode="&#x636;" horiz-adv-x="1693" arabic-form="initial" 
d="M472 2q-71 0 -124 25.5t-102 70.5q-49 -45 -112 -70.5t-135 -25.5v234q24 0 47.5 9t42 25.5t30 41t11.5 56.5v47l234 94v-141q0 -31 10.5 -55.5t29.5 -41.5t43.5 -26t53.5 -9q53 67 116.5 137.5t135 133.5t150 114.5t163 81t173 32.5t179.5 -30q50 -18 88.5 -54t65 -82
t40.5 -99t14 -104q0 -75 -28.5 -141.5t-78 -116t-115.5 -78t-141 -28.5h-791zM1259 236q36 0 61.5 11t42 29.5t24.5 42t7 47.5t-10 47t-25.5 41t-41 30t-56.5 15q-63 5 -127.5 -19.5t-125 -64.5t-113 -88.5t-90.5 -90.5h454zM928 1145l168 -168l-168 -167l-167 167z" />
    <glyph glyph-name="uniFEC0" unicode="&#x636;" horiz-adv-x="1739" arabic-form="medial" 
d="M472 2q-71 0 -124 25.5t-102 70.5q-49 -45 -112 -70.5t-135 -25.5v234q24 0 47.5 9t42 25.5t30 41t11.5 56.5v47l234 94v-141q0 -63 39.5 -97t97.5 -35q54 67 118 137.5t135.5 134.5t150 116t161.5 83t171 35.5t178 -26.5q66 -23 117 -76t79 -120.5t28.5 -142
t-35.5 -141.5h136v-234h-1268zM1258 236q36 0 61.5 11t42 29.5t24.5 42t7 47.5t-10 47t-25.5 41t-40.5 30t-56 15q-63 5 -127.5 -19.5t-125 -64.5t-113 -88.5t-90.5 -90.5h453zM928 1145l168 -168l-168 -167l-167 167z" />
    <glyph glyph-name="uni0637" unicode="&#x637;" horiz-adv-x="1439" arabic-form="isolated" 
d="M361 -1q-64 6 -137.5 29.5t-156.5 69.5l70 225q26 -23 57.5 -41t64.5 -31v941h233v-746q40 44 86.5 87t98 80.5t107.5 66.5t116.5 44t124.5 14t131 -24q50 -17 90 -54t68 -85.5t43 -103t15 -105.5q0 -75 -28.5 -141.5t-78 -116t-115.5 -78t-141 -28.5zM1005 236
q36 0 61.5 11t42 29.5t24.5 42t7 47.5t-9.5 47t-25.5 41t-41.5 30t-56.5 15q-42 3 -85 -7t-85 -30t-82.5 -47t-77 -57.5t-68.5 -62t-57 -59.5h453z" />
    <glyph glyph-name="uniFEC2" unicode="&#x637;" horiz-adv-x="1480" arabic-form="final" 
d="M362 -1q-65 6 -138 29.5t-157 69.5l70 225q56 -46 122 -72v941h234v-750q63 69 138.5 135t160.5 110.5t177 58t187 -23.5q49 -19 88 -52t67 -74t45 -88t22 -95t-2.5 -93.5t-27.5 -83.5h133v-234zM1005 236q36 0 61.5 11t42 29.5t24.5 42t7 47.5t-9.5 47t-25 41t-41 30
t-56.5 15q-63 5 -127.5 -19.5t-125 -64.5t-113 -88.5t-90.5 -90.5h453z" />
    <glyph glyph-name="uniFEC3" unicode="&#x637;" horiz-adv-x="1324" arabic-form="initial" 
d="M-1 2v234h145v956h234v-741q42 42 88 84t96.5 78t105.5 64.5t113.5 44t122 15t130.5 -22.5q50 -16 91 -53t70.5 -85.5t45.5 -103.5t16 -106q0 -75 -29 -141.5t-78.5 -116t-115.5 -78t-141 -28.5h-894zM889 236q36 0 62 11t42.5 29.5t24.5 42t7 47.5t-10 47t-25.5 41
t-41 30t-56.5 15q-63 5 -127.5 -19.5t-125 -64.5t-113 -88.5t-90.5 -90.5h453z" />
    <glyph glyph-name="uniFEC4" unicode="&#x637;" horiz-adv-x="1361" arabic-form="medial" 
d="M-1 2v234h140v956h234v-738q58 63 131 125t157.5 105.5t179 60t196.5 -11.5q51 -14 91.5 -44t69 -71t45.5 -89.5t21 -99.5t-5 -100.5t-31 -92.5h134v-234h-221h-184h-157h-143h-139h-149h-169h-201zM886 236q35 0 61 11t42.5 29.5t24.5 42t7 47.5t-10 47t-26 41t-41.5 30
t-56.5 15q-42 3 -85 -7t-85 -30t-82.5 -47t-77 -57.5t-68.5 -62t-57 -59.5h454z" />
    <glyph glyph-name="uni0638" unicode="&#x638;" horiz-adv-x="1439" arabic-form="isolated" 
d="M361 -1q-64 6 -137.5 29.5t-156.5 69.5l70 225q26 -23 57.5 -41t64.5 -31v941h233v-746q40 44 86.5 87t98 80.5t107.5 66.5t116.5 44t124.5 14t131 -24q50 -17 90 -54t68 -85.5t43 -103t15 -105.5q0 -75 -28.5 -141.5t-78 -116t-115.5 -78t-141 -28.5zM1005 236
q36 0 61.5 11t42 29.5t24.5 42t7 47.5t-9.5 47t-25.5 41t-41.5 30t-56.5 15q-42 3 -85 -7t-85 -30t-82.5 -47t-77 -57.5t-68.5 -62t-57 -59.5h453zM763 1145l169 -168l-169 -167l-167 167z" />
    <glyph glyph-name="uniFEC6" unicode="&#x638;" horiz-adv-x="1480" arabic-form="final" 
d="M362 -1q-65 6 -138 29.5t-157 69.5l70 225q56 -46 122 -72v941h234v-750q63 69 138.5 135t160.5 110.5t177 58t187 -23.5q49 -19 88 -52t67 -74t45 -88t22 -95t-2.5 -93.5t-27.5 -83.5h133v-234zM1005 236q36 0 61.5 11t42 29.5t24.5 42t7 47.5t-9.5 47t-25 41t-41 30
t-56.5 15q-63 5 -127.5 -19.5t-125 -64.5t-113 -88.5t-90.5 -90.5h453zM771 1145l169 -168l-169 -167l-167 167z" />
    <glyph glyph-name="uniFEC7" unicode="&#x638;" horiz-adv-x="1324" arabic-form="initial" 
d="M-1 2v234h145v956h234v-741q42 42 88 84t96.5 78t105.5 64.5t113.5 44t122 15t130.5 -22.5q50 -16 91 -53t70.5 -85.5t45.5 -103.5t16 -106q0 -75 -29 -141.5t-78.5 -116t-115.5 -78t-141 -28.5h-894zM889 236q36 0 62 11t42.5 29.5t24.5 42t7 47.5t-10 47t-25.5 41
t-41 30t-56.5 15q-63 5 -127.5 -19.5t-125 -64.5t-113 -88.5t-90.5 -90.5h453zM652 1145l169 -168l-169 -167l-167 167z" />
    <glyph glyph-name="uniFEC8" unicode="&#x638;" horiz-adv-x="1361" arabic-form="medial" 
d="M-1 2v234h140v956h234v-738q58 63 131 125t157.5 105.5t179 60t196.5 -11.5q51 -14 91.5 -44t69 -71t45.5 -89.5t21 -99.5t-5 -100.5t-31 -92.5h134v-234h-221h-184h-157h-143h-139h-149h-169h-201zM886 236q35 0 61 11t42.5 29.5t24.5 42t7 47.5t-10 47t-26 41t-41.5 30
t-56.5 15q-42 3 -85 -7t-85 -30t-82.5 -47t-77 -57.5t-68.5 -62t-57 -59.5h454zM652 1145l169 -168l-169 -167l-167 167z" />
    <glyph glyph-name="uni0639" unicode="&#x639;" horiz-adv-x="925" arabic-form="isolated" 
d="M773 217q-35 -9 -83.5 -17.5t-100.5 -20.5t-102.5 -29.5t-91 -44t-65.5 -63t-25 -86.5t15.5 -86t42.5 -60t63 -37.5t77 -17.5q39 -5 79.5 -0.5t81.5 13.5t81 20.5t78 20.5l35 -218q-63 -19 -128 -34t-130 -22t-128.5 -2.5t-122.5 25t-111.5 60t-95.5 102.5
q-43 62 -62 135.5t-9.5 149.5t51.5 151t122 141q-58 88 -76.5 173.5t-4.5 161t58 137.5t112 104q43 27 91.5 39t97 10.5t95.5 -16t89 -39.5l-27 -225q-25 21 -57.5 31t-67 9.5t-66.5 -11t-55 -30t-34 -48.5t-3 -66q8 -36 27.5 -71t35.5 -67q40 11 84.5 22.5t90.5 22.5
t92 20.5t90 17.5z" />
    <glyph glyph-name="uniFECA" unicode="&#x639;" horiz-adv-x="974" arabic-form="final" 
d="M702 236h273v-234h-226q-45 3 -78.5 8.5t-63.5 20.5t-61 42t-71 72q-36 -15 -67 -33t-54 -41.5t-36 -52t-13 -62.5q0 -50 15.5 -86t42.5 -60t63 -37.5t77 -17.5q39 -5 79.5 -0.5t81.5 13.5t81 20.5t78 20.5l35 -218q-63 -19 -128 -34t-130.5 -22t-128.5 -2.5t-122 25
t-111.5 60t-96.5 102.5q-46 67 -64.5 147.5t-2 163t71.5 162.5t157 147l-70 79q-25 28 -46 53.5t-35.5 53.5t-21 60.5t-1.5 73.5q6 57 36.5 99.5t74.5 73t96.5 48.5t103.5 26q62 9 135.5 4t141.5 -28t122 -66t78 -111q26 -73 19.5 -143t-37.5 -131t-82 -111.5t-115 -84.5z
M544 421q27 9 54.5 22.5t49 32t33.5 44t9 58.5q-3 34 -22.5 57.5t-49 37.5t-65.5 18.5t-71.5 -1.5t-68 -21.5t-53.5 -40.5z" />
    <glyph glyph-name="uniFECB" unicode="&#x639;" horiz-adv-x="965" arabic-form="initial" 
d="M898 2h-899v234h164q-36 64 -49 139t-4.5 149.5t38.5 144t80 123t119 85.5t157 32q75 0 141 -29t115.5 -80.5t78 -121.5t28.5 -152h-233q0 42 -15 70t-37.5 44t-49 21t-50.5 -1q-55 -13 -84.5 -50t-37 -84.5t4.5 -99.5t39 -95t67 -70.5t88 -27.5l339 3v-234z" />
    <glyph glyph-name="uniFECC" unicode="&#x639;" horiz-adv-x="1005" arabic-form="medial" 
d="M1006 236v-234h-1007v234h267l-122 267q-40 87 -27.5 156.5t59 120.5t118.5 83t150 44q39 5 81 4.5t83 -5.5t80 -15t74 -24q99 -39 145 -107.5t49.5 -154t-30 -181t-93.5 -188.5h173zM545 236q28 34 63 81.5t61.5 99t35.5 103t-16 93.5q-13 22 -41 34.5t-63 17.5t-72 3.5
t-69 -7t-54 -13.5t-26 -16z" />
    <glyph glyph-name="uni063A" unicode="&#x63a;" horiz-adv-x="925" arabic-form="isolated" 
d="M773 217q-35 -9 -83.5 -17.5t-100.5 -20.5t-102.5 -29.5t-91 -44t-65.5 -63t-25 -86.5t15.5 -86t42.5 -60t63 -37.5t77 -17.5q39 -5 79.5 -0.5t81.5 13.5t81 20.5t78 20.5l35 -218q-63 -19 -128 -34t-130 -22t-128.5 -2.5t-122.5 25t-111.5 60t-95.5 102.5
q-43 62 -62 135.5t-9.5 149.5t51.5 151t122 141q-58 88 -76.5 173.5t-4.5 161t58 137.5t112 104q43 27 91.5 39t97 10.5t95.5 -16t89 -39.5l-27 -225q-25 21 -57.5 31t-67 9.5t-66.5 -11t-55 -30t-34 -48.5t-3 -66q8 -36 27.5 -71t35.5 -67q40 11 84.5 22.5t90.5 22.5
t92 20.5t90 17.5zM364 1368l168 -168l-168 -167l-167 167z" />
    <glyph glyph-name="uniFECE" unicode="&#x63a;" horiz-adv-x="974" arabic-form="final" 
d="M702 236h273v-234h-226q-45 3 -78.5 8.5t-63.5 20.5t-61 42t-71 72q-36 -15 -67 -33t-54 -41.5t-36 -52t-13 -62.5q0 -50 15.5 -86t42.5 -60t63 -37.5t77 -17.5q39 -5 79.5 -0.5t81.5 13.5t81 20.5t78 20.5l35 -218q-63 -19 -128 -34t-130.5 -22t-128.5 -2.5t-122 25
t-111.5 60t-96.5 102.5q-46 67 -64.5 147.5t-2 163t71.5 162.5t157 147l-70 79q-25 28 -46 53.5t-35.5 53.5t-21 60.5t-1.5 73.5q6 57 36.5 99.5t74.5 73t96.5 48.5t103.5 26q62 9 135.5 4t141.5 -28t122 -66t78 -111q26 -73 19.5 -143t-37.5 -131t-82 -111.5t-115 -84.5z
M544 421q27 9 54.5 22.5t49 32t33.5 44t9 58.5q-3 34 -22.5 57.5t-49 37.5t-65.5 18.5t-71.5 -1.5t-68 -21.5t-53.5 -40.5zM505 1368l169 -168l-169 -167l-167 167z" />
    <glyph glyph-name="uniFECF" unicode="&#x63a;" horiz-adv-x="965" arabic-form="initial" 
d="M898 2h-899v234h164q-36 64 -49 139t-4.5 149.5t38.5 144t80 123t119 85.5t157 32q75 0 141 -29t115.5 -80.5t78 -121.5t28.5 -152h-233q0 42 -15 70t-37.5 44t-49 21t-50.5 -1q-55 -13 -84.5 -50t-37 -84.5t4.5 -99.5t39 -95t67 -70.5t88 -27.5l339 3v-234zM505 1368
l169 -168l-169 -167l-167 167z" />
    <glyph glyph-name="uniFED0" unicode="&#x63a;" horiz-adv-x="1005" arabic-form="medial" 
d="M1006 236v-234h-1007v234h267l-122 267q-40 87 -27.5 156.5t59 120.5t118.5 83t150 44q39 5 81 4.5t83 -5.5t80 -15t74 -24q99 -39 145 -107.5t49.5 -154t-30 -181t-93.5 -188.5h173zM545 236q28 34 63 81.5t61.5 99t35.5 103t-16 93.5q-13 22 -41 34.5t-63 17.5t-72 3.5
t-69 -7t-54 -13.5t-26 -16zM525 1368l168 -168l-168 -167l-167 167z" />
    <glyph glyph-name="uni0641" unicode="&#x641;" horiz-adv-x="1437" arabic-form="isolated" 
d="M666 236q-24 60 -24 129v181q0 75 29 141t78.5 115.5t116 78t141.5 28.5q74 0 140 -28.5t115.5 -78t78.5 -115.5t29 -141v-181q0 -75 -29 -141.5t-78.5 -116.5t-115.5 -78.5t-140 -28.5l-576 2q-75 0 -141.5 28.5t-116 78t-78 115.5t-28.5 141v73h234v-70q0 -32 11 -56.5
t29 -41t41.5 -25.5t48.5 -9h235zM876 541v-173q0 -32 11 -56.5t29.5 -41.5t42 -26.5t48.5 -10.5q24 -1 47.5 6.5t41.5 24t29 42.5t11 62v173q0 36 -11 62t-29 43t-41.5 24.5t-47.5 6.5q-25 -1 -48.5 -10.5t-42 -27t-29.5 -42t-11 -56.5zM1004 1368l169 -168l-169 -167
l-167 167z" />
    <glyph glyph-name="uniFED2" unicode="&#x641;" horiz-adv-x="1513" arabic-form="final" 
d="M1514 2h-1082q-75 0 -141.5 28.5t-116 77.5t-78.5 115.5t-29 141.5v73h235v-70q0 -32 11 -56.5t29 -41t41.5 -25.5t48.5 -9h234q-11 30 -17.5 62t-6.5 67v181q0 75 29 141t78.5 115.5t116 78t141.5 28.5t141 -28.5t115.5 -78t78 -115.5t28.5 -141v-181q0 -68 -23 -129
h167v-234zM877 541v-173q0 -32 11 -56.5t29 -41.5t41.5 -26.5t48.5 -10.5q24 -1 47.5 6.5t42 24t29.5 42.5t11 62v173q0 36 -11 62t-29.5 43t-42 24.5t-47.5 6.5q-25 -1 -48.5 -10.5t-41.5 -27t-29 -42t-11 -56.5zM1004 1368l169 -168l-169 -167l-167 167z" />
    <glyph glyph-name="uniFED3" unicode="&#x641;" horiz-adv-x="934" arabic-form="initial" 
d="M-1 2v234h163q-11 30 -17.5 62t-6.5 67v181q0 75 29 141t78.5 115.5t116 78t141.5 28.5t141 -28.5t115.5 -78t78.5 -115.5t29 -141v-181q0 -75 -29 -141.5t-78.5 -116.5t-115.5 -78.5t-141 -28.5zM373 541v-173q0 -32 11 -56.5t29.5 -41.5t42 -26.5t47.5 -10.5t47.5 6.5
t42 24t29.5 42.5t11 62v173q0 36 -11 62t-29.5 43t-42 24.5t-47.5 6.5t-47.5 -10.5t-42 -27t-29.5 -42t-11 -56.5zM505 1368l169 -168l-169 -167l-167 167z" />
    <glyph glyph-name="uniFED4" unicode="&#x641;" horiz-adv-x="1005" arabic-form="medial" 
d="M1006 2h-1007v234h164q-11 30 -17.5 62t-6.5 67v181q0 75 29 141t78.5 115.5t116 78t141.5 28.5t141 -28.5t115.5 -78t78 -115.5t28.5 -141v-181q0 -70 -22 -129h161v-234zM374 368q0 -32 11 -56.5t29 -41.5t41.5 -26.5t48.5 -10.5q24 -1 47.5 6.5t42 24t29.5 42.5t11 62
v173q0 36 -11 62t-29.5 43t-42 24.5t-47.5 6.5q-25 -1 -48.5 -10.5t-41.5 -27t-29 -42t-11 -56.5v-173zM505 1368l169 -168l-169 -167l-167 167z" />
    <glyph glyph-name="uni0642" unicode="&#x642;" horiz-adv-x="1197" arabic-form="isolated" 
d="M598 -404q-101 -3 -197 26t-170 89t-119 149.5t-45 207.5v90h234v-86q0 -80 38 -135t96 -84.5t127 -33.5t131.5 17t109 68t60.5 119q-56 -21 -112 -20.5t-107 18.5t-95.5 51.5t-77.5 78.5t-51.5 99.5t-18.5 114.5v181q0 75 28.5 141t78 115.5t116 78t141.5 28.5
t141 -28.5t115.5 -78t78.5 -115.5t29 -141v-184v-62t-5 -98.5t-17 -122t-35.5 -131.5t-61.5 -127.5t-95 -110t-135 -79.5t-182 -35zM619 1369l141 -140l139 140l168 -167l-168 -168l-139 139l-141 -139l-168 168zM635 541v-173q0 -32 11 -56.5t29 -41.5t41.5 -26.5
t48.5 -10.5q24 -1 47.5 6.5t42 24t29.5 42.5t11 62v173q0 36 -11 62t-29.5 43t-42 24.5t-47.5 6.5q-25 -1 -48.5 -10.5t-41.5 -27t-29 -42t-11 -56.5z" />
    <glyph glyph-name="uniFED6" unicode="&#x642;" horiz-adv-x="1272" arabic-form="final" 
d="M1125 2q-19 -106 -74.5 -184t-133.5 -128.5t-171.5 -74t-188 -19.5t-183 35.5t-156.5 90.5t-109.5 145.5t-41.5 200.5v90h234v-86q0 -59 22 -104t58.5 -76.5t84.5 -49.5t99 -22.5t102.5 4.5t95.5 32t77 59.5t47 86.5h-122q-75 0 -141.5 28.5t-116 78t-78 115.5t-28.5 141
v181q0 75 28.5 141t78 115.5t116 78t141.5 28.5t141.5 -28.5t116 -78t78.5 -115.5t29 -141v-310h143v-234h-148zM619 1369l141 -140l139 140l168 -167l-168 -168l-139 139l-141 -139l-168 168zM635 541v-173q0 -32 11 -56t29.5 -40.5t42 -25.5t47.5 -10q32 -2 65 -1t65 1
v305q0 36 -11 62t-29.5 43t-42 24.5t-47.5 6.5t-47.5 -10.5t-42 -27t-29.5 -42t-11 -56.5z" />
    <glyph glyph-name="uniFED7" unicode="&#x642;" horiz-adv-x="934" arabic-form="initial" 
d="M-1 2v234h163q-11 30 -17.5 62t-6.5 67v181q0 75 29 141t78.5 115.5t116 78t141.5 28.5t141 -28.5t115.5 -78t78.5 -115.5t29 -141v-181q0 -75 -29 -141.5t-78.5 -116.5t-115.5 -78.5t-141 -28.5zM363 1369l140 -140l139 140l168 -167l-168 -168l-139 139l-140 -139
l-168 168zM373 541v-173q0 -32 11 -56.5t29.5 -41.5t42 -26.5t47.5 -10.5t47.5 6.5t42 24t29.5 42.5t11 62v173q0 36 -11 62t-29.5 43t-42 24.5t-47.5 6.5t-47.5 -10.5t-42 -27t-29.5 -42t-11 -56.5z" />
    <glyph glyph-name="uniFED8" unicode="&#x642;" horiz-adv-x="1005" arabic-form="medial" 
d="M1006 2h-1007v234h164q-11 30 -17.5 62t-6.5 67v181q0 75 29 141t78.5 115.5t116 78t141.5 28.5t141 -28.5t115.5 -78t78 -115.5t28.5 -141v-181q0 -70 -22 -129h161v-234zM363 1369l140 -140l139 140l168 -167l-168 -168l-139 139l-140 -139l-168 168zM374 368
q0 -32 11 -56.5t29 -41.5t41.5 -26.5t48.5 -10.5q24 -1 47.5 6.5t42 24t29.5 42.5t11 62v173q0 36 -11 62t-29.5 43t-42 24.5t-47.5 6.5q-25 -1 -48.5 -10.5t-41.5 -27t-29 -42t-11 -56.5v-173z" />
    <glyph glyph-name="uni0643" unicode="&#x643;" horiz-adv-x="1336" arabic-form="isolated" 
d="M1269 1192v-790q0 -101 -33.5 -182.5t-91.5 -142t-135 -101.5t-163.5 -61t-177.5 -20t-177.5 20t-163.5 60.5t-135 101.5t-91.5 142t-33.5 183v36h234v-32q0 -71 31.5 -124.5t83 -89.5t117.5 -54.5t135 -19t135 17.5t117.5 53.5t83 89.5t31.5 127v786h234zM531 775
q-27 -1 -51 8t-41.5 26t-26 41t-4.5 52q5 38 25 64t44 54l161 187l124 -86l-176 -202h118q71 0 118 -29t70.5 -73t23.5 -95q0 -50 -23.5 -94t-70.5 -73t-118 -29h-237q-58 0 -100 19t-68 50l107 118q5 -14 20.5 -23.5t43.5 -9.5h232q34 0 50 15t15.5 32.5t-17.5 32.5t-48 15
h-171z" />
    <glyph glyph-name="uniFB8F" unicode="&#x6a9;" horiz-adv-x="1398" arabic-form="final" 
d="M1269 1192v-790q0 -31 6 -61t21 -53t40 -37.5t63 -14.5v-234q-69 0 -130.5 24t-109.5 67q-56 -64 -132.5 -107.5t-164 -66t-180.5 -24.5t-181 17.5t-167 59.5t-138.5 101.5t-94 143.5t-34.5 185v36h234v-32q0 -71 31.5 -124.5t83 -89.5t117.5 -54.5t134.5 -19t134.5 17.5
t117.5 53.5t83 89.5t31.5 127v786h235zM530 775q-27 -1 -51 8t-41 26t-25.5 41t-4.5 52q5 38 25 64t43 54l162 187l124 -86l-176 -202h118q71 0 118 -29t70.5 -73t23.5 -95q0 -50 -23.5 -94t-71 -73t-117.5 -29h-237q-58 0 -100 19t-68 50l107 118q5 -14 20 -23.5t43 -9.5
h232q34 0 50 15t15.5 32.5t-17.5 32.5t-48 15h-171z" />
    <glyph glyph-name="uniFB90" unicode="&#x6a9;" horiz-adv-x="1313" arabic-form="initial" 
d="M358 474q-48 -2 -90.5 10.5t-72.5 39t-45 65.5t-9 90q5 34 16.5 62t28 52.5t36.5 48t41 48.5l290 334l176 -153l-313 -363h474q89 0 156 -30.5t111.5 -80t66.5 -113t22 -129.5t-22.5 -129.5t-67 -113t-111 -80t-155.5 -30.5h-891v234h888q46 0 75.5 17.5t44 44t13.5 57.5
t-16.5 57.5t-44.5 44t-72 17.5h-529z" />
    <glyph glyph-name="uniFB91" unicode="&#x6a9;" horiz-adv-x="1387" arabic-form="medial" 
d="M358 474q-48 -2 -90.5 10.5t-73 39t-45.5 65.5t-8 90q5 34 16.5 62t27.5 52.5t36 48t41 48.5l290 334l177 -153l-314 -363h474q64 0 120.5 -19t101.5 -52.5t77.5 -78.5t48.5 -97.5t14.5 -109.5t-23.5 -115h160v-234h-1389v234h887q46 0 76 17.5t44 44t13 57.5t-16 57.5
t-44.5 44t-72.5 17.5h-528z" />
    <glyph glyph-name="uni06AF" unicode="&#x6af;" horiz-adv-x="1833" arabic-form="isolated" 
d="M961 708h474q89 0 156 -30.5t111.5 -80t66.5 -113t22 -129.5t-22.5 -129.5t-67 -113t-111 -80t-155.5 -30.5h-911q-16 0 -32 7q-80 32 -159 72t-138.5 101.5t-94 143.5t-34.5 185v36h234v-32q0 -71 31.5 -124.5t83 -89.5t117.5 -55q22 -5 46 -10h854q46 0 75.5 17.5
t44 44t13.5 57.5t-16.5 57.5t-44.5 44t-72 17.5h-529q-48 -2 -90.5 10.5t-72.5 39t-45 65.5t-9 90q5 34 16.5 62t28 52.5t36.5 48t41 48.5l290 334l176 -153zM628 754q-14 43 -8 92q5 34 16.5 62t28 52.5t36.5 48t41 48.5l234 271l84 -75z" />
    <glyph glyph-name="uniFB93" unicode="&#x6af;" horiz-adv-x="1920" arabic-form="final" 
d="M1780 450q9 -33 11 -67q1 -14 1 -28q0 -60 -19 -118h155v-234h-461q-15 -1 -31 -1h-911q-16 0 -32 7q-80 32 -159 72t-138.5 101.5t-94 143.5t-34.5 185v36h234v-32q0 -71 31.5 -124.5t83 -89.5t117.5 -55q22 -5 46 -10h859v1q38 2 64 17q30 18 44 44.5t13 57.5t-16 57.5
t-44 43.5q-4 2 -9 4l1 3q-25 10 -58 10h-529q-48 -2 -90.5 10.5t-72.5 39t-45 65.5t-9 90q5 34 16.5 62t28 52.5t36.5 48t41 48.5l290 334l176 -153l-313 -363h474q89 0 156 -30.5t111.5 -80t66.5 -112.5q6 -18 10 -35zM628 754q-14 43 -8 92q5 34 16.5 62t28 52.5t36.5 48
t41 48.5l234 271l84 -75z" />
    <glyph glyph-name="uniFB94" unicode="&#x6af;" horiz-adv-x="1313" arabic-form="initial" 
d="M358 474q-48 -2 -90.5 10.5t-72.5 39t-45 65.5t-9 90q5 34 16.5 62t28 52.5t36.5 48t41 48.5l290 334l176 -153l-313 -363h474q89 0 156 -30.5t111.5 -80t66.5 -113t22 -129.5t-22.5 -129.5t-67 -113t-111 -80t-155.5 -30.5h-891v234h888q46 0 75.5 17.5t44 44t13.5 57.5
t-16.5 57.5t-44.5 44t-72 17.5h-529zM78 754q-14 43 -8 92q5 34 16.5 62t28 52.5t36.5 48t41 48.5l234 271l84 -75z" />
    <glyph glyph-name="uniFB95" unicode="&#x6af;" horiz-adv-x="1387" arabic-form="medial" 
d="M358 474q-48 -2 -90.5 10.5t-73 39t-45.5 65.5t-8 90q5 34 16.5 62t27.5 52.5t36 48t41 48.5l290 334l177 -153l-314 -363h474q64 0 120.5 -19t101.5 -52.5t77.5 -78.5t48.5 -97.5t14.5 -109.5t-23.5 -115h160v-234h-1389v234h887q46 0 76 17.5t44 44t13 57.5t-16 57.5
t-44.5 44t-72.5 17.5h-528zM78 754q-14 43 -8 92q5 34 16.5 62t28 52.5t36.5 48t41 48.5l234 271l84 -75z" />
    <glyph glyph-name="uni0644" unicode="&#x644;" horiz-adv-x="1034" arabic-form="isolated" 
d="M967 1192l-4 -1041q0 -63 -5.5 -120t-22 -108t-48 -96.5t-83.5 -85.5q-62 -48 -136 -73t-151 -25q-85 0 -166 30.5t-144 86.5t-101.5 134t-38.5 174v369h234v-365q0 -50 18.5 -87t49 -61.5t69 -37.5t79.5 -13t80 12t69 37t48.5 62.5t18.5 87.5v1120h234z" />
    <glyph glyph-name="uniFEDE" unicode="&#x644;" horiz-adv-x="1104" arabic-form="final" 
d="M967 236h138v-234h-143q-13 -82 -55.5 -148.5t-103.5 -113t-135 -72t-151 -25.5q-84 0 -165 30.5t-144.5 86.5t-102 134t-38.5 174v369h234v-365q0 -50 18.5 -87t49 -61.5t69 -37.5t79.5 -13t80 12t69 37t48.5 62.5t18.5 87.5v1120h234v-956z" />
    <glyph glyph-name="uniFEDF" unicode="&#x644;" horiz-adv-x="473" arabic-form="initial" 
d="M365 1192v-827q0 -75 -29 -141.5t-79 -115.5t-116.5 -77.5t-141.5 -28.5v234q25 0 48.5 9t42 25.5t29.5 41t11 56.5v824h235z" />
    <glyph glyph-name="uniFEE0" unicode="&#x644;" horiz-adv-x="492" arabic-form="medial" 
d="M364 1192v-824q0 -32 11 -56.5t29 -41t41.5 -25.5t47.5 -9v-234q-72 0 -135 25.5t-112 70.5q-49 -45 -112 -70.5t-135 -25.5v234q24 0 47.5 9t42 25.5t30 41t11.5 56.5v824h234z" />
    <glyph glyph-name="uni0645" unicode="&#x645;" horiz-adv-x="1126" arabic-form="isolated" 
d="M142 -351q-25 63 -44 131t-26.5 134.5t0 129.5t37 116.5t84 95.5t139.5 67l-1 223q0 75 28.5 141t78 115.5t116 78t141.5 28.5t141 -28.5t115.5 -78t78.5 -115.5t29 -141v-193q0 -75 -28.5 -141t-78.5 -115q-52 -51 -103 -73.5t-104 -25t-108.5 11t-115.5 34.5
q-37 13 -72.5 16t-64.5 -7.5t-48 -36.5t-23 -72q-4 -49 15 -121.5t69 -173.5h-255zM565 541v-247q4 -4 25.5 -14t50 -18.5t61 -12.5t60 5t45.5 34.5t18 74.5v178q0 36 -11 62t-29.5 43t-42 24.5t-47.5 6.5t-47.5 -10.5t-41.5 -27t-29.5 -42t-11.5 -56.5z" />
    <glyph glyph-name="uniFEE2" unicode="&#x645;" horiz-adv-x="1184" arabic-form="final" 
d="M1185 2h-397q-59 0 -100.5 4t-72 10.5t-52.5 14t-42 13.5q-38 11 -73.5 14.5t-64 -6.5t-47.5 -35.5t-23 -72.5q-4 -49 15 -121.5t68 -173.5h-254q-25 63 -44 131t-26.5 134.5t0 129.5t37 116.5t84 95.5t139.5 67l-1 223q0 75 28.5 141t78 115.5t116 78t141.5 28.5
t141 -28.5t116 -78t79 -115.5t29 -141v-193q0 -62 -20 -117h145v-234zM565 541v-247q4 -4 25.5 -14t50 -18.5t61 -12.5t60 5t45.5 34.5t18 74.5v178q0 36 -11 62t-29 43t-41.5 24.5t-48.5 6.5q-24 -1 -47.5 -10.5t-41.5 -27t-29.5 -42t-11.5 -56.5z" />
    <glyph glyph-name="uniFEE3" unicode="&#x645;" horiz-adv-x="947" arabic-form="initial" 
d="M-1 236q33 -1 61 5.5t48.5 22.5t32 41.5t11.5 62.5v178q0 75 28.5 141t78 115.5t116 78t141.5 28.5t141 -28.5t115.5 -78t78.5 -115.5t29 -141v-181q0 -75 -29 -141.5t-78.5 -116t-115.5 -78.5t-141 -29q-72 0 -135.5 26t-112.5 72q-59 -56 -124.5 -75.5t-144.5 -20.5
v234zM386 541v-173q0 -32 11 -56.5t29.5 -41.5t42 -26.5t47.5 -10.5t47.5 6.5t42 24t29.5 42.5t11 62v173q0 36 -11 62t-29.5 43t-42 24.5t-47.5 6.5t-47.5 -10.5t-42 -27t-29.5 -42t-11 -56.5z" />
    <glyph glyph-name="uniFEE4" unicode="&#x645;" horiz-adv-x="1021" arabic-form="medial" 
d="M1021 2l-506 -2q-72 0 -135 26t-112 72q-59 -56 -124.5 -75.5t-144.5 -20.5v234q33 -1 61 5.5t48 22.5t31.5 41.5t11.5 62.5v178q0 75 28.5 141t78 115.5t116 78t141.5 28.5t141.5 -28.5t116 -78t78.5 -115.5t29 -141v-310h141v-234zM386 541v-173q0 -32 11 -56.5
t29 -41.5t41.5 -26.5t47.5 -10.5h131v308q0 36 -11.5 62t-30 43t-42 24.5t-47.5 6.5t-47.5 -10.5t-41.5 -27t-29 -42t-11 -56.5z" />
    <glyph glyph-name="uni0646" unicode="&#x646;" horiz-adv-x="1034" arabic-form="isolated" 
d="M968 750v-682q0 -96 -39 -174t-102 -134t-144 -86.5t-165 -30.5q-85 0 -166 30.5t-144.5 86.5t-102 134t-38.5 174v369h235v-365q0 -50 18.5 -87t48.5 -61.5t69 -37.5t80 -13q40 0 79 12t69.5 37t49 62.5t18.5 87.5v678h234zM434 986l169 -168l-169 -167l-167 167z" />
    <glyph glyph-name="uniFEE6" unicode="&#x646;" horiz-adv-x="1104" arabic-form="final" 
d="M967 750v-514h138v-234h-143q-13 -82 -55.5 -148.5t-103.5 -113t-135.5 -72t-150.5 -25.5q-85 0 -166 30.5t-144 86.5t-101.5 134t-38.5 174v369h234v-365q0 -50 18.5 -87t49 -61.5t69 -37.5t79.5 -13q40 0 79 12t69.5 37t49 62.5t18.5 87.5v678h234zM434 986l169 -168
l-169 -167l-167 167z" />
    <glyph glyph-name="uniFEE7" unicode="&#x646;" horiz-adv-x="430" arabic-form="initial" 
d="M364 750v-385q0 -75 -29 -141.5t-78.5 -115.5t-116 -77.5t-141.5 -28.5v234q24 0 47.5 9t42 25.5t30 41t11.5 56.5v382h234zM250 1209l168 -168l-168 -167l-167 167z" />
    <glyph glyph-name="uniFEE8" unicode="&#x646;" horiz-adv-x="492" arabic-form="medial" 
d="M364 368q0 -32 11 -56.5t29 -41t41.5 -25.5t47.5 -9v-234q-72 0 -135 25.5t-112 70.5q-49 -45 -112 -70.5t-135 -25.5v234q24 0 47.5 9t42 25.5t30 41t11.5 56.5v382h234v-382zM250 1209l168 -168l-168 -167l-167 167z" />
    <glyph glyph-name="uni0648" unicode="&#x648;" horiz-adv-x="862" arabic-form="isolated" 
d="M124 -115q58 -23 123.5 -30.5t124 7t102 53.5t56.5 108q-56 -21 -112 -22t-107.5 15t-96 46.5t-77.5 72.5t-51.5 95t-18.5 112v204q0 75 28.5 141t78 115.5t116 78t141.5 28.5t141 -28.5t115.5 -78t78.5 -115.5t29 -141v-184q0 -108 -10.5 -210.5t-37.5 -191t-74.5 -159
t-122 -113.5t-179.5 -54.5t-247 17.5v234zM302 541v-173q0 -32 11 -56.5t29 -41.5t41 -26.5t48 -10.5q24 -1 47.5 6.5t42 24t29.5 42.5t11 62v173q0 36 -11 62t-29.5 43t-42 24.5t-47.5 6.5q-25 -1 -48 -10.5t-41 -27t-29 -42t-11 -56.5z" />
    <glyph glyph-name="uniFEEE" unicode="&#x648;" horiz-adv-x="933" arabic-form="final" 
d="M934 2h-174q-28 -119 -91.5 -198t-149.5 -121.5t-188 -50t-207 18.5v234q55 -23 118 -31t120 4t101 46.5t62 97.5q-39 -7 -87.5 -6t-99.5 12.5t-99.5 35t-87 63.5t-61.5 98t-23 137v204q0 75 28.5 141t78 115.5t116 78t141.5 28.5t141 -28.5t115.5 -78t78.5 -115.5
t29 -141v-138t-0.5 -86t-1 -51.5t-1.5 -34.5h142v-234zM302 541v-173q0 -32 11 -56.5t29 -41.5t41 -26.5t48 -10.5h130v308q0 36 -11 62t-29.5 43t-42 24.5t-47.5 6.5q-25 -1 -48 -10.5t-41 -27t-29 -42t-11 -56.5z" />
    <glyph glyph-name="uni0647" unicode="&#x647;" horiz-adv-x="862" arabic-form="isolated" 
d="M795 365q0 -75 -29 -141.5t-78.5 -116t-115.5 -78.5t-141 -29t-141.5 29t-116 78.5t-78 116t-28.5 141.5v181q0 75 28.5 141t78 115.5t116 78t141.5 28.5t141 -28.5t115.5 -78t78.5 -115.5t29 -141v-181zM302 541v-173q0 -32 11 -56.5t29 -41.5t41.5 -26.5t47.5 -10.5
t47.5 6.5t42 24t29.5 42.5t11 62v173q0 36 -11 62t-29.5 43t-42 24.5t-47.5 6.5t-47.5 -10.5t-41.5 -27t-29 -42t-11 -56.5z" />
    <glyph glyph-name="uniFEEA" unicode="&#x647;" horiz-adv-x="925" arabic-form="final" 
d="M302 368q0 -32 11 -56t29 -40.5t41.5 -25.5t48.5 -10h28l-76 -231q-67 9 -125 40.5t-100.5 79.5t-67 109.5t-24.5 130.5v181q0 75 29 141t78.5 115.5t116 78t141.5 28.5t141 -28.5t115.5 -78t78 -115.5t28.5 -141v-178q0 -32 11 -56.5t29.5 -41t42 -25.5t48.5 -9v-234
q-75 0 -141.5 28.5t-116 77.5t-78.5 115.5t-29 141.5v176q0 36 -11 62t-29.5 43t-41.5 24.5t-47 6.5q-25 -1 -48.5 -10.5t-41.5 -27t-29 -42t-11 -56.5v-173z" />
    <glyph glyph-name="uniFEEB" unicode="&#x647;" horiz-adv-x="1396" arabic-form="initial" 
d="M-1 2v234h142l-2 310q0 75 29 141t78.5 115.5t116.5 78t142 28.5q49 0 95 -13t86.5 -36.5t73.5 -56.5t57 -73h149q75 0 141 -29t115.5 -78.5t78 -115.5t28.5 -141t-28.5 -141.5t-78 -116t-115.5 -78t-141 -28.5h-967zM373 233h132q24 0 47 7.5t41.5 24t29.5 42t11 61.5
v173q0 36 -11 62t-29.5 43t-41.5 24.5t-47 6.5q-25 -1 -48.5 -10.5t-42 -27t-29.5 -42t-11 -56.5zM867 496v-131q0 -70 -22 -129h116q36 0 62 11t42.5 29.5t24 42t6.5 47.5t-10 47.5t-26 42t-42 29.5t-57 11h-94z" />
    <glyph glyph-name="uniFEEC" unicode="&#x647;" horiz-adv-x="1473" arabic-form="medial" 
d="M-1 2v234h142l-2 310q0 75 29 141t78.5 115.5t116 78t141.5 28.5q49 0 95.5 -13t86.5 -36.5t73.5 -56.5t57.5 -73h149q75 0 140.5 -29t115 -78.5t78 -115.5t28.5 -141l1 -130h145v-234h-1475zM373 233h131q24 0 47.5 7.5t42 24t29.5 42t11 61.5v173q0 36 -11 62t-29.5 43
t-42 24.5t-47.5 6.5q-25 -1 -48.5 -10.5t-42 -27t-29.5 -42t-11 -56.5v-308zM867 496v-131q0 -70 -22 -129h251v130q0 24 -9 47.5t-26.5 42t-42.5 29.5t-57 11h-94z" />
    <glyph glyph-name="uni0629" unicode="&#x629;" horiz-adv-x="862" arabic-form="isolated" 
d="M795 365q0 -75 -29 -141.5t-78.5 -116t-115.5 -78.5t-141 -29t-141.5 29t-116 78.5t-78 116t-28.5 141.5v181q0 75 28.5 141t78 115.5t116 78t141.5 28.5t141 -28.5t115.5 -78t78.5 -115.5t29 -141v-181zM302 541v-173q0 -32 11 -56.5t29 -41.5t41.5 -26.5t47.5 -10.5
t47.5 6.5t42 24t29.5 42.5t11 62v173q0 36 -11 62t-29.5 43t-42 24.5t-47.5 6.5t-47.5 -10.5t-41.5 -27t-29 -42t-11 -56.5zM447 1190q-75 0 -142 -2.5t-141 -19.5l-18 85l82 22q-26 39 -29 75.5t10.5 66.5t39.5 51.5t58 31.5t66.5 5.5t64.5 -26.5l-23 -86q-13 5 -28.5 8.5
t-30 2.5t-27 -7.5t-20.5 -19.5q-11 -17 -7.5 -34.5t14.5 -31.5q14 -17 32.5 -23.5t39 -8t41.5 0.5t40 2z" />
    <glyph glyph-name="uniFBA5" unicode="&#x6c0;" horiz-adv-x="925" arabic-form="final" 
d="M302 368q0 -32 11 -56t29 -40.5t41.5 -25.5t48.5 -10h28l-76 -231q-67 9 -125 40.5t-100.5 79.5t-67 109.5t-24.5 130.5v181q0 75 29 141t78.5 115.5t116 78t141.5 28.5t141 -28.5t115.5 -78t78 -115.5t28.5 -141v-178q0 -32 11 -56.5t29.5 -41t42 -25.5t48.5 -9v-234
q-75 0 -141.5 28.5t-116 77.5t-78.5 115.5t-29 141.5v176q0 36 -11 62t-29.5 43t-41.5 24.5t-47 6.5q-25 -1 -48.5 -10.5t-41.5 -27t-29 -42t-11 -56.5v-173zM447 1190q-75 0 -142 -2.5t-141 -19.5l-18 85l82 22q-26 39 -29 75.5t10.5 66.5t39.5 51.5t58 31.5t66.5 5.5
t64.5 -26.5l-23 -86q-13 5 -28.5 8.5t-30 2.5t-27 -7.5t-20.5 -19.5q-11 -17 -7.5 -34.5t14.5 -31.5q14 -17 32.5 -23.5t39 -8t41.5 0.5t40 2z" />
    <glyph glyph-name="uni064A" unicode="&#x64a;" horiz-adv-x="1282" arabic-form="isolated" 
d="M409 2q-95 2 -160 35t-105.5 89t-58.5 130t-18 159l206 82q0 -41 9 -87t32.5 -84t63 -63.5t99.5 -26.5h374q46 0 74.5 16.5t40.5 40.5t9.5 52.5t-19.5 52.5t-47 40t-72 15l-126 -1q-58 -3 -102 7.5t-75 31t-49 48.5t-24 61q-11 59 2 112t42 99.5t70.5 87.5t88 77.5
t93.5 67.5t87 58l143 -186q-86 -39 -161.5 -94t-135.5 -136q39 0 77.5 0.5t77 -1t76 -7.5t74.5 -18q68 -23 114 -64t72 -91.5t32 -107.5t-6.5 -113t-41.5 -107t-74 -90t-104.5 -62t-132.5 -23h-445z" />
    <glyph glyph-name="uniFBFD" unicode="&#x6cc;" horiz-adv-x="1307" arabic-form="final" 
d="M1308 2h-130q3 -76 -29.5 -145t-90 -128t-134.5 -105.5t-162.5 -77t-174.5 -43t-170 -3.5q-69 6 -123.5 30.5t-96 62.5t-69 87t-43 104.5t-18.5 115t6 117.5l212 83q-18 -112 0.5 -184.5t61 -113t102.5 -54t124.5 -7.5t126.5 27t109.5 48.5t73.5 58.5t17 56t-58.5 41
t-152.5 14l-70 -1l85 252l604 -1v-234z" />
    <glyph glyph-name="uniFBFE" unicode="&#x6cc;" horiz-adv-x="587" arabic-form="initial" 
d="M520 365q0 -75 -28.5 -141t-77.5 -115.5t-115.5 -78t-141.5 -28.5h-158v234h158q24 0 47 9t41.5 25.5t29.5 41t11 56.5v382h234v-385zM103 -123l140 -140l140 140l168 -167l-168 -168l-140 139l-140 -139l-168 168z" />
    <glyph glyph-name="uniFBFF" unicode="&#x6cc;" horiz-adv-x="492" arabic-form="medial" 
d="M364 368q0 -32 11 -56.5t29 -41t41.5 -25.5t47.5 -9v-234q-72 0 -135 25.5t-112 70.5q-49 -45 -112 -70.5t-135 -25.5v234q24 0 47.5 9t42 25.5t30 41t11.5 56.5v382h234v-382zM103 -123l140 -140l140 140l168 -167l-168 -168l-140 139l-140 -139l-168 168z" />
    <glyph glyph-name="uni0649" unicode="&#x649;" horiz-adv-x="1282" arabic-form="isolated" 
d="M409 2q-95 2 -160 35t-105.5 89t-58.5 130t-18 159l206 82q0 -41 9 -87t32.5 -84t63 -63.5t99.5 -26.5h374q46 0 74.5 16.5t40.5 40.5t9.5 52.5t-19.5 52.5t-47 40t-72 15l-126 -1q-58 -3 -102 7.5t-75 31t-49 48.5t-24 61q-11 59 2 112t42 99.5t70.5 87.5t88 77.5
t93.5 67.5t87 58l143 -186q-86 -39 -161.5 -94t-135.5 -136q39 0 77.5 0.5t77 -1t76 -7.5t74.5 -18q68 -23 114 -64t72 -91.5t32 -107.5t-6.5 -113t-41.5 -107t-74 -90t-104.5 -62t-132.5 -23h-445z" />
    <glyph glyph-name="uniFEF0" unicode="&#x649;" horiz-adv-x="1307" arabic-form="final" 
d="M1308 2h-130q3 -76 -29.5 -145t-90 -128t-134.5 -105.5t-162.5 -77t-174.5 -43t-170 -3.5q-69 6 -123.5 30.5t-96 62.5t-69 87t-43 104.5t-18.5 115t6 117.5l212 83q-18 -112 0.5 -184.5t61 -113t102.5 -54t124.5 -7.5t126.5 27t109.5 48.5t73.5 58.5t17 56t-58.5 41
t-152.5 14l-70 -1l85 252l604 -1v-234z" />
    <glyph glyph-name="glyph1" 
 />
    <glyph glyph-name="glyph2" horiz-adv-x="500" 
 />
    <glyph glyph-name="space" unicode=" " horiz-adv-x="435" 
 />
    <glyph glyph-name="exclam" unicode="!" horiz-adv-x="560" 
d="M284 292l175 -174l-175 -177l-176 177zM387 1298v-573q0 -50 -2.5 -102.5t-12.5 -103t-28.5 -95.5t-49.5 -79l-90 87q9 38 12.5 87.5t1.5 115.5l-64 557z" />
    <glyph glyph-name="percent" unicode="%" horiz-adv-x="829" 
d="M719 1290l-419 -1391l-238 -127l418 1391zM99 1138l169 -168l-169 -167l-167 167zM656 313l169 -168l-169 -167l-167 167z" />
    <glyph glyph-name="parenleft" unicode="(" horiz-adv-x="612" 
d="M64 421q0 216 79.5 420t256.5 449h178q-132 -212 -189.5 -416t-57.5 -453q1 -249 58.5 -453t188.5 -415h-178q-177 244 -256 449q-80 203 -80 419z" />
    <glyph glyph-name="parenright" unicode=")" horiz-adv-x="612" 
d="M548 421q0 -216 -79 -420t-258 -448h-176q131 212 189 416t57 452q-1 249 -58.5 453.5t-187.5 415.5h176q179 -245 257 -449q80 -204 80 -420z" />
    <glyph glyph-name="asterisk" unicode="*" horiz-adv-x="1211" 
d="M1211 881l-75 186l-339 -88v283h-246l4 -279l-340 87l-79 -186l344 -89l-211 -229l195 -112l208 225l211 -225l201 112l-212 229z" />
    <glyph glyph-name="plus" unicode="+" horiz-adv-x="1139" 
d="M1079 22h-391v-391h-233v391h-392v232h392v393h233v-393h391v-232z" />
    <glyph glyph-name="comma" unicode="," horiz-adv-x="555" 
d="M131 379q0 60 43 103q40 34 112 34q35 0 62.5 -8t50.5 -26q41 -38 41 -103v-59q0 -72 -11 -128.5t-35 -101.5t-75.5 -67.5t-132.5 -22.5v134q64 6 85 27t21 71q-40 0 -71 11.5t-53 35.5q-37 36 -37 100z" />
    <glyph glyph-name="hyphen" unicode="-" horiz-adv-x="1010" 
d="M952 22h-915v234h915v-234z" />
    <glyph glyph-name="period" unicode="." horiz-adv-x="545" 
d="M438 -56q0 -60 -44 -101.5t-111 -41.5q-61 0 -106.5 37.5t-45.5 105.5q0 32 9.5 56t31.5 43q45 37 111 37q68 0 111.5 -34.5t43.5 -101.5z" />
    <glyph glyph-name="slash" unicode="/" horiz-adv-x="940" 
d="M872 692l-589 -1077h-248l592 1077h245z" />
    <glyph glyph-name="zero" unicode="0" horiz-adv-x="1149" 
d="M753 585l-94 -323l-263 157l94 328z" />
    <glyph glyph-name="zero" unicode="&#x6f0;" horiz-adv-x="1149" 
d="M753 585l-94 -323l-263 157l94 328z" />
    <glyph glyph-name="zero" unicode="&#x660;" horiz-adv-x="1149" 
d="M753 585l-94 -323l-263 157l94 328z" />
    <glyph glyph-name="one" unicode="1" horiz-adv-x="1149" 
d="M479 1179q50 -65 92.5 -147.5t77 -176t61 -194t44.5 -201t28 -197.5t11 -183l-82 -171q-57 281 -139.5 520t-193.5 445z" />
    <glyph glyph-name="one" unicode="&#x6f1;" horiz-adv-x="1149" 
d="M479 1179q50 -65 92.5 -147.5t77 -176t61 -194t44.5 -201t28 -197.5t11 -183l-82 -171q-57 281 -139.5 520t-193.5 445z" />
    <glyph glyph-name="one" unicode="&#x661;" horiz-adv-x="1149" 
d="M479 1179q50 -65 92.5 -147.5t77 -176t61 -194t44.5 -201t28 -197.5t11 -183l-82 -171q-57 281 -139.5 520t-193.5 445z" />
    <glyph glyph-name="two" unicode="2" horiz-adv-x="1149" 
d="M916 1075q0 -96 -21.5 -171t-61 -129.5t-95.5 -89.5t-126 -51q36 -91 63 -191.5t44 -194.5t21.5 -173.5t-4.5 -128.5l-65 -32q-88 264 -198 524.5t-240 526.5q-1 4 5.5 18t17 33.5t23.5 42t26 43.5t24.5 38.5t18.5 26.5q47 -60 92.5 -106.5t90 -74t87 -34t83 13.5
t78 69.5t72.5 132.5h52q8 0 10.5 -27.5t2.5 -65.5z" />
    <glyph glyph-name="two" unicode="&#x6f2;" horiz-adv-x="1149" 
d="M916 1075q0 -96 -21.5 -171t-61 -129.5t-95.5 -89.5t-126 -51q36 -91 63 -191.5t44 -194.5t21.5 -173.5t-4.5 -128.5l-65 -32q-88 264 -198 524.5t-240 526.5q-1 4 5.5 18t17 33.5t23.5 42t26 43.5t24.5 38.5t18.5 26.5q47 -60 92.5 -106.5t90 -74t87 -34t83 13.5
t78 69.5t72.5 132.5h52q8 0 10.5 -27.5t2.5 -65.5z" />
    <glyph glyph-name="two" unicode="&#x662;" horiz-adv-x="1149" 
d="M916 1075q0 -96 -21.5 -171t-61 -129.5t-95.5 -89.5t-126 -51q36 -91 63 -191.5t44 -194.5t21.5 -173.5t-4.5 -128.5l-65 -32q-88 264 -198 524.5t-240 526.5q-1 4 5.5 18t17 33.5t23.5 42t26 43.5t24.5 38.5t18.5 26.5q47 -60 92.5 -106.5t90 -74t87 -34t83 13.5
t78 69.5t72.5 132.5h52q8 0 10.5 -27.5t2.5 -65.5z" />
    <glyph glyph-name="three" unicode="3" horiz-adv-x="1149" 
d="M889 687q-9 0 -24 3t-34 7.5t-39.5 10.5t-41.5 12q-48 15 -103 34q-21 -18 -48.5 -36.5t-57.5 -36t-60 -33.5t-56 -28l125 -645l-91 -66l-362 1005q0 3 7.5 16t19.5 32.5t27 42l29 43.5t26.5 39t20.5 27q37 -48 68 -92.5t64 -71t74 -28t98 36.5q32 21 63 55.5t56.5 67
t44 56.5t24.5 24q14 0 20 -7t11 -19q14 -90 23 -106q7 -14 24.5 -23.5t40 -16.5t47 -10t45.5 -3l76 163l64 -22z" />
    <glyph glyph-name="three" unicode="&#x6f3;" horiz-adv-x="1149" 
d="M889 687q-9 0 -24 3t-34 7.5t-39.5 10.5t-41.5 12q-48 15 -103 34q-21 -18 -48.5 -36.5t-57.5 -36t-60 -33.5t-56 -28l125 -645l-91 -66l-362 1005q0 3 7.5 16t19.5 32.5t27 42l29 43.5t26.5 39t20.5 27q37 -48 68 -92.5t64 -71t74 -28t98 36.5q32 21 63 55.5t56.5 67
t44 56.5t24.5 24q14 0 20 -7t11 -19q14 -90 23 -106q7 -14 24.5 -23.5t40 -16.5t47 -10t45.5 -3l76 163l64 -22z" />
    <glyph glyph-name="three" unicode="&#x663;" horiz-adv-x="1149" 
d="M889 687q-9 0 -24 3t-34 7.5t-39.5 10.5t-41.5 12q-48 15 -103 34q-21 -18 -48.5 -36.5t-57.5 -36t-60 -33.5t-56 -28l125 -645l-91 -66l-362 1005q0 3 7.5 16t19.5 32.5t27 42l29 43.5t26.5 39t20.5 27q37 -48 68 -92.5t64 -71t74 -28t98 36.5q32 21 63 55.5t56.5 67
t44 56.5t24.5 24q14 0 20 -7t11 -19q14 -90 23 -106q7 -14 24.5 -23.5t40 -16.5t47 -10t45.5 -3l76 163l64 -22z" />
    <glyph glyph-name="four" unicode="4" horiz-adv-x="1149" 
d="M706 1204q-9 -60 -17 -112.5t-17 -111.5q-30 -6 -61.5 -16t-57 -22.5t-42 -27t-16.5 -29.5q0 -18 17 -40.5t48 -50.5t73.5 -63t92.5 -78q-63 -85 -107 -144.5t-71.5 -100t-42 -65.5t-18.5 -43q32 -20 72.5 -36t87.5 -30t100 -28t110 -30l-84 -257q-80 23 -148 42
t-127.5 38.5t-112.5 41t-103 49.5q-6 3 0.5 28.5t22 63.5t38.5 84.5t50 91.5t56.5 84.5t57.5 64.5q-20 22 -49.5 44t-61 45t-59.5 47t-45 51q0 48 16 101.5t45 106t68 101.5t85 89.5t97 70t103 41.5z" />
    <glyph glyph-name="four" unicode="&#x6f4;" horiz-adv-x="1149" 
d="M706 1204q-9 -60 -17 -112.5t-17 -111.5q-30 -6 -61.5 -16t-57 -22.5t-42 -27t-16.5 -29.5q0 -18 17 -40.5t48 -50.5t73.5 -63t92.5 -78q-63 -85 -107 -144.5t-71.5 -100t-42 -65.5t-18.5 -43q32 -20 72.5 -36t87.5 -30t100 -28t110 -30l-84 -257q-80 23 -148 42
t-127.5 38.5t-112.5 41t-103 49.5q-6 3 0.5 28.5t22 63.5t38.5 84.5t50 91.5t56.5 84.5t57.5 64.5q-20 22 -49.5 44t-61 45t-59.5 47t-45 51q0 48 16 101.5t45 106t68 101.5t85 89.5t97 70t103 41.5z" />
    <glyph glyph-name="four" unicode="&#x664;" horiz-adv-x="1149" 
d="M706 1204q-9 -60 -17 -112.5t-17 -111.5q-30 -6 -61.5 -16t-57 -22.5t-42 -27t-16.5 -29.5q0 -18 17 -40.5t48 -50.5t73.5 -63t92.5 -78q-63 -85 -107 -144.5t-71.5 -100t-42 -65.5t-18.5 -43q32 -20 72.5 -36t87.5 -30t100 -28t110 -30l-84 -257q-80 23 -148 42
t-127.5 38.5t-112.5 41t-103 49.5q-6 3 0.5 28.5t22 63.5t38.5 84.5t50 91.5t56.5 84.5t57.5 64.5q-20 22 -49.5 44t-61 45t-59.5 47t-45 51q0 48 16 101.5t45 106t68 101.5t85 89.5t97 70t103 41.5z" />
    <glyph glyph-name="five" unicode="5" horiz-adv-x="1149" 
d="M492 104q-264 0 -264 268q0 42 14 107t39 138t60 147t77 133.5t90 96.5t99 37q28 0 63.5 -22t72 -57t70.5 -79t60 -88.5t40.5 -85t10.5 -67.5q4 -25 2.5 -73.5t-15 -107t-41.5 -120t-77.5 -112t-123 -83t-177.5 -32.5zM490 752q-18 -17 -37.5 -48t-35.5 -65.5
t-26.5 -68.5t-10.5 -58q0 -43 24.5 -71t63.5 -43t86.5 -18t93.5 4.5t84.5 24.5t59.5 43q-75 153 -151 226t-151 74z" />
    <glyph glyph-name="five" unicode="&#x6f5;" horiz-adv-x="1149" 
d="M492 104q-264 0 -264 268q0 42 14 107t39 138t60 147t77 133.5t90 96.5t99 37q28 0 63.5 -22t72 -57t70.5 -79t60 -88.5t40.5 -85t10.5 -67.5q4 -25 2.5 -73.5t-15 -107t-41.5 -120t-77.5 -112t-123 -83t-177.5 -32.5zM490 752q-18 -17 -37.5 -48t-35.5 -65.5
t-26.5 -68.5t-10.5 -58q0 -43 24.5 -71t63.5 -43t86.5 -18t93.5 4.5t84.5 24.5t59.5 43q-75 153 -151 226t-151 74z" />
    <glyph glyph-name="five" unicode="&#x665;" horiz-adv-x="1149" 
d="M492 104q-264 0 -264 268q0 42 14 107t39 138t60 147t77 133.5t90 96.5t99 37q28 0 63.5 -22t72 -57t70.5 -79t60 -88.5t40.5 -85t10.5 -67.5q4 -25 2.5 -73.5t-15 -107t-41.5 -120t-77.5 -112t-123 -83t-177.5 -32.5zM490 752q-18 -17 -37.5 -48t-35.5 -65.5
t-26.5 -68.5t-10.5 -58q0 -43 24.5 -71t63.5 -43t86.5 -18t93.5 4.5t84.5 24.5t59.5 43q-75 153 -151 226t-151 74z" />
    <glyph glyph-name="six" unicode="6" horiz-adv-x="1149" 
d="M873 -86q-59 23 -100 70.5t-67.5 113.5t-40 146t-16 168.5t4 181.5t19.5 184l-487 57l52 261l563 -78q0 -21 -5.5 -63.5t-12.5 -89t-12.5 -89t-6.5 -63.5q-4 -83 0 -143.5t14.5 -106t27 -80t39 -65t49.5 -61t59 -68.5z" />
    <glyph glyph-name="six" unicode="&#x6f6;" horiz-adv-x="1149" 
d="M873 -86q-59 23 -100 70.5t-67.5 113.5t-40 146t-16 168.5t4 181.5t19.5 184l-487 57l52 261l563 -78q0 -21 -5.5 -63.5t-12.5 -89t-12.5 -89t-6.5 -63.5q-4 -83 0 -143.5t14.5 -106t27 -80t39 -65t49.5 -61t59 -68.5z" />
    <glyph glyph-name="six" unicode="&#x666;" horiz-adv-x="1149" 
d="M873 -86q-59 23 -100 70.5t-67.5 113.5t-40 146t-16 168.5t4 181.5t19.5 184l-487 57l52 261l563 -78q0 -21 -5.5 -63.5t-12.5 -89t-12.5 -89t-6.5 -63.5q-4 -83 0 -143.5t14.5 -106t27 -80t39 -65t49.5 -61t59 -68.5z" />
    <glyph glyph-name="seven" unicode="7" horiz-adv-x="1149" 
d="M126 844l104 246l381 -825l392 857l29 -254l-449 -989z" />
    <glyph glyph-name="seven" unicode="&#x6f7;" horiz-adv-x="1149" 
d="M126 844l104 246l381 -825l392 857l29 -254l-449 -989z" />
    <glyph glyph-name="seven" unicode="&#x667;" horiz-adv-x="1149" 
d="M126 844l104 246l381 -825l392 857l29 -254l-449 -989z" />
    <glyph glyph-name="eight" unicode="8" horiz-adv-x="1149" 
d="M1027 171l-104 -247l-382 780l-391 -811l-29 253l448 944z" />
    <glyph glyph-name="eight" unicode="&#x6f8;" horiz-adv-x="1149" 
d="M1027 171l-104 -247l-382 780l-391 -811l-29 253l448 944z" />
    <glyph glyph-name="eight" unicode="&#x668;" horiz-adv-x="1149" 
d="M1027 171l-104 -247l-382 780l-391 -811l-29 253l448 944z" />
    <glyph glyph-name="nine" unicode="9" horiz-adv-x="1149" 
d="M555 1205q31 0 51.5 -14.5t39.5 -54t40.5 -110.5t54.5 -183.5t82 -273t123 -379.5l-84 -315l-212 587q-95 -23 -164 -26t-118 9t-79.5 36.5t-47.5 57t-23.5 70.5t-6.5 78q0 35 14 87t38.5 109.5t57.5 115t71.5 103.5t80 74.5t82.5 28.5zM500 938q-16 0 -34.5 -12
t-36.5 -33t-34.5 -48.5t-26.5 -57.5q2 -29 15.5 -45t33.5 -24t44 -9.5t47.5 0t44.5 4t35 2.5q-12 60 -19 102t-15 69t-20 39.5t-34 12.5z" />
    <glyph glyph-name="nine" unicode="&#x6f9;" horiz-adv-x="1149" 
d="M555 1205q31 0 51.5 -14.5t39.5 -54t40.5 -110.5t54.5 -183.5t82 -273t123 -379.5l-84 -315l-212 587q-95 -23 -164 -26t-118 9t-79.5 36.5t-47.5 57t-23.5 70.5t-6.5 78q0 35 14 87t38.5 109.5t57.5 115t71.5 103.5t80 74.5t82.5 28.5zM500 938q-16 0 -34.5 -12
t-36.5 -33t-34.5 -48.5t-26.5 -57.5q2 -29 15.5 -45t33.5 -24t44 -9.5t47.5 0t44.5 4t35 2.5q-12 60 -19 102t-15 69t-20 39.5t-34 12.5z" />
    <glyph glyph-name="nine" unicode="&#x669;" horiz-adv-x="1149" 
d="M555 1205q31 0 51.5 -14.5t39.5 -54t40.5 -110.5t54.5 -183.5t82 -273t123 -379.5l-84 -315l-212 587q-95 -23 -164 -26t-118 9t-79.5 36.5t-47.5 57t-23.5 70.5t-6.5 78q0 35 14 87t38.5 109.5t57.5 115t71.5 103.5t80 74.5t82.5 28.5zM500 938q-16 0 -34.5 -12
t-36.5 -33t-34.5 -48.5t-26.5 -57.5q2 -29 15.5 -45t33.5 -24t44 -9.5t47.5 0t44.5 4t35 2.5q-12 60 -19 102t-15 69t-20 39.5t-34 12.5z" />
    <glyph glyph-name="colon" unicode=":" horiz-adv-x="535" 
d="M424 301q0 -63 -45 -105q-22 -18 -49.5 -28.5t-59.5 -10.5q-66 0 -112 37q-41 38 -41 107q0 63 41 99t112 36q34 0 62 -8t49 -27q43 -30 43 -100zM426 -56q0 -60 -44.5 -101.5t-111.5 -41.5q-60 0 -105.5 37.5t-45.5 105.5q0 32 9.5 56t31.5 43q43 37 110 37
q68 0 112 -34.5t44 -101.5z" />
    <glyph glyph-name="equal" unicode="=" horiz-adv-x="1034" 
d="M981 137h-920v231h920v-231zM981 -181h-920v234h920v-234z" />
    <glyph glyph-name="bracketleft" unicode="[" horiz-adv-x="640" 
d="M539 -257h-325v1645h325v-62h-182v-1521h182v-62z" />
    <glyph glyph-name="bracketright" unicode="]" horiz-adv-x="640" 
d="M419 -257h-284v62h141v1520h-141v61h284v-1643z" />
    <glyph glyph-name="braceleft" unicode="{" horiz-adv-x="693" 
d="M651 -357q-207 -14 -303 54.5t-96 229.5v231q0 140 -26 175t-141 50v158q115 15 141 50t26 175v231q0 161 96 229.5t303 55.5v-160q-121 6 -149.5 -22t-28.5 -155v-232q0 -139 -83 -201q-39 -29 -106 -51q67 -19 106 -49q83 -62 83 -201v-232q0 -127 28.5 -155t149.5 -21
v-160z" />
    <glyph glyph-name="braceright" unicode="}" horiz-adv-x="693" 
d="M43 -357v160q121 -7 149 21t28 155v232q0 139 84 201q38 30 105 49q-67 22 -105 51q-84 62 -84 201v232q0 127 -28 155t-149 22v160q207 13 302.5 -55.5t95.5 -229.5v-231q0 -140 26 -175t141 -50v-158q-115 -15 -141 -50t-26 -175v-231q0 -161 -96 -230
q-95 -68 -302 -54z" />
    <glyph glyph-name="guillemotleft" unicode="&#xab;" horiz-adv-x="880" 
d="M763 -134h-72q-82 97 -164 192.5t-164 192.5q84 97 164.5 189.5t164.5 189.5h64l-217 -378zM461 -134h-68q-82 97 -163 192.5t-164 192.5q84 97 164.5 189.5t165.5 189.5h65l-219 -378z" />
    <glyph glyph-name="guillemotright" unicode="&#xbb;" horiz-adv-x="880" 
d="M335 252q-54 94 -108 189t-109 189h65q81 -95 163.5 -189.5t165.5 -189.5q-84 -99 -165 -193t-163 -192h-74zM632 252q-54 94 -109.5 189t-109.5 189h65q83 -95 165.5 -189.5t164.5 -189.5q-83 -99 -163 -193t-164 -192h-68z" />
    <glyph glyph-name="multiply" unicode="&#xd7;" horiz-adv-x="1041" 
d="M520 301l-304 -304l-145 144l305 305l-305 304l145 144l304 -304l305 304l144 -144l-304 -304l304 -305l-144 -144z" />
    <glyph glyph-name="divide" unicode="&#xf7;" horiz-adv-x="1041" 
d="M520 232q66 0 112.5 -46t46.5 -112t-46.5 -112t-112.5 -46t-112 46t-46 112t46 112t112 46zM71 549h898v-207h-898v207zM520 975q66 0 112.5 -46t46.5 -112t-46.5 -112t-112.5 -46t-112 46t-46 112t46 112t112 46z" />
    <glyph glyph-name="uni200C" unicode="&#x200c;" horiz-adv-x="37" 
 />
    <glyph glyph-name="uni200D" unicode="&#x200d;" horiz-adv-x="37" 
 />
    <glyph glyph-name="uni200E" unicode="&#x200e;" horiz-adv-x="37" 
d="M245 1149l-108 -111l-28 23l72 72h-144v-1289h-37v1324h176l-67 67l28 25z" />
    <glyph glyph-name="uni200F" unicode="&#x200f;" horiz-adv-x="37" 
d="M37 -156h-37v1289h-143l69 -72l-23 -23l-114 111l114 111l23 -25l-67 -67h178v-1324z" />
    <glyph glyph-name="quoteleft" unicode="&#x2018;" horiz-adv-x="491" 
d="M467 1330q-89 -59 -154 -145q-76 -101 -76 -193q0 -55 32 -98q39 47 90 47q102 0 102 -100q0 -59 -48 -92q-43 -30 -104 -30q-82 0 -133 50.5t-51 132.5q0 141 108 283q97 127 234 200v-55z" />
    <glyph glyph-name="quoteright" unicode="&#x2019;" horiz-adv-x="491" 
d="M444 1197q0 -143 -107 -281q-91 -118 -232 -200v56q228 162 228 338q0 62 -33 101q-33 -49 -95 -49q-41 0 -69.5 28t-28.5 69q0 58 49 93q43 31 104 31q86 0 135 -50t49 -136z" />
    <glyph glyph-name="quotedblleft" unicode="&#x201c;" horiz-adv-x="650" 
d="M572 990q-13 -6 -41 -26q-52 -51 -52 -95q82 -22 82 -112q0 -45 -31.5 -78t-76.5 -33q-52 0 -84 42q-29 38 -29 92q0 201 203 359q0 -83 1 -93q4 -40 28 -56zM302 990q-13 -6 -41 -26q-52 -51 -52 -95q82 -22 82 -112q0 -45 -31.5 -78t-76.5 -33q-52 0 -84 42
q-29 38 -29 92q0 201 203 359q0 -83 1 -93q4 -40 28 -56z" />
    <glyph glyph-name="quotedblright" unicode="&#x201d;" horiz-adv-x="650" 
d="M580 995q0 -201 -203 -359q0 83 -1 93q-4 40 -28 56q13 6 41 26q52 51 52 95q-82 22 -82 112q0 46 31 78.5t77 32.5q54 0 85 -41q28 -37 28 -93zM310 995q0 -201 -203 -359q0 83 -1 93q-4 40 -28 56q13 6 41 26q52 51 52 95q-82 22 -82 112q0 46 31 78.5t77 32.5
q54 0 85 -41q28 -37 28 -93z" />
    <glyph glyph-name="guilsinglleft" unicode="&#x2039;" horiz-adv-x="891" 
d="M836 -379l-793 463v190l793 465v-268l-504 -293l504 -291v-266z" />
    <glyph glyph-name="guilsinglright" unicode="&#x203a;" horiz-adv-x="891" 
d="M846 84l-793 -463v266l506 291l-506 293v268l793 -465v-190z" />
    <glyph glyph-name="uni060C" unicode="&#x60c;" horiz-adv-x="418" 
d="M415 -53q0 -33 -28 -65q-36 -41 -94 -41q-66 0 -103 49q-34 45 -34 113q0 168 140 243q19 10 46 11q28 1 28 -11q-4 -6 -30 -29q-84 -74 -84 -177q33 10 61 10q98 0 98 -103z" />
    <glyph glyph-name="uni061B" unicode="&#x61b;" horiz-adv-x="497" 
d="M258 337q-107 12 -149.5 116t27.5 235.5t206 157.5q-191 -266 27 -343zM259 280l169 -168l-169 -167l-167 167z" />
    <glyph glyph-name="uni061F" unicode="&#x61f;" horiz-adv-x="806" 
d="M624 980q-34 45 -78.5 70t-89.5 12q-36 -3 -56.5 -21t-29 -46t-7 -62.5t9.5 -70.5q14 -58 45 -117t62.5 -108t55 -80.5t21.5 -34.5l-101 -141q-58 72 -102.5 126.5t-78 97.5t-57.5 78.5t-40 70t-25.5 71.5t-14.5 84q-8 73 6 138.5t55 115t112.5 79t178.5 31.5
q25 0 60.5 -10.5t70 -27.5t62 -39.5t36.5 -45.5zM474 292l175 -174l-175 -177l-176 177z" />
    <glyph glyph-name="uni0640" unicode="&#x640;" horiz-adv-x="492" 
d="M493 236v-234h-494v234h494z" />
    <glyph glyph-name="uni064B" unicode="&#x64b;" 
d="M478 1691l-377 -155v114l377 149v-108zM478 1904l-377 -155v114l377 149v-108z" />
    <glyph glyph-name="uni064C" unicode="&#x64c;" 
d="M513 1811q0 -51 -71 -130l47 -14l-50 -86q-68 12 -98 34q-118 -70 -218 -70q-43 0 -87 96q64 0 73 3q21 24 21 50q0 20 -16 20q-17 0 -62 -48l-18 84q49 56 101 56q19 0 37 -9q48 -22 48 -78q0 -42 -15 -65q46 4 70 23q-36 61 -36 86q0 56 75 110q64 48 101 48
q98 0 98 -110zM401 1799q0 23 -20 23q-34 0 -34 -37q0 -35 26 -56q28 18 28 70z" />
    <glyph glyph-name="uni064D" unicode="&#x64d;" 
d="M538 -1329l-377 -154v114l377 148v-108zM538 -1116l-377 -155v114l377 149v-108z" />
    <glyph glyph-name="uni064E" unicode="&#x64e;" 
d="M478 1771l-377 -155v114l377 149v-108z" />
    <glyph glyph-name="uni064F" unicode="&#x64f;" 
d="M506 1811q0 -49 -70 -130l46 -14l-49 -86q-71 14 -99 34q-123 -70 -217 -70q-46 0 -86 97q117 3 151 7q63 8 86 29q-35 62 -35 87q0 54 75 108q64 49 100 49q47 0 76 -39q22 -32 22 -72zM394 1799q0 23 -19 23q-36 0 -36 -36q0 -35 27 -56q28 17 28 69z" />
    <glyph glyph-name="uni0650" unicode="&#x650;" 
d="M538 -1116l-378 -155v114l378 149v-108z" />
    <glyph glyph-name="uni0651" unicode="&#x651;" 
d="M514 1702q0 -60 -35 -104q-42 -49 -108 -49q-70 0 -96 47q-43 -51 -122 -51q-52 0 -86 43t-34 89q0 34 19 74q25 55 64 55q29 0 29 -31q0 -11 -2.5 -30t-2.5 -29q0 -42 33 -42q38 0 53 31q5 12 19 73q6 31 38 31t35 -34q12 -106 53 -106q38 0 38 45q0 22 -10 56l79 65
q36 -59 36 -133z" />
    <glyph glyph-name="uni0652" unicode="&#x652;" 
d="M436 1699q0 -151 -160 -151q-140 0 -140 116q0 49 36 136q44 104 93 104q85 0 132 -68q39 -56 39 -137zM366 1689q0 85 -101 85q-6 0 -20 -32q-15 -34 -15 -55q0 -31 54 -31q82 0 82 33z" />
    <glyph glyph-name="uniE820" unicode="&#xe820;" 
d="M501 1310l-377 -155v114l377 149v-108z" />
    <glyph glyph-name="uniE821" unicode="&#xe821;" 
d="M533 1392q0 -49 -70 -130l46 -14l-49 -86q-71 14 -99 34q-123 -70 -217 -70q-46 0 -86 97q117 3 151 7q63 8 86 29q-35 62 -35 87q0 54 75 108q64 49 100 49q47 0 76 -39q22 -32 22 -72zM421 1380q0 23 -19 23q-36 0 -36 -36q0 -35 27 -56q28 17 28 69z" />
    <glyph glyph-name="uniE822" unicode="&#xe822;" 
d="M423 1262q0 -151 -160 -151q-140 0 -140 116q0 49 36 136q44 104 93 104q85 0 132 -68q39 -56 39 -137zM353 1252q0 85 -101 85q-6 0 -20 -32q-15 -34 -15 -55q0 -31 54 -31q82 0 82 33z" />
    <glyph glyph-name="uniE823" unicode="&#xe823;" 
d="M482 1249l-377 -155v114l377 149v-108zM482 1462l-377 -155v114l377 149v-108z" />
    <glyph glyph-name="uniE824" unicode="&#xe824;" 
d="M582 1387q0 -51 -71 -130l47 -14l-50 -86q-68 12 -98 34q-118 -70 -218 -70q-43 0 -87 96q64 0 73 3q21 24 21 50q0 20 -16 20q-17 0 -62 -48l-18 84q49 56 101 56q19 0 37 -9q48 -22 48 -78q0 -42 -15 -65q46 4 70 23q-36 61 -36 86q0 56 75 110q64 48 101 48
q98 0 98 -110zM470 1375q0 23 -20 23q-34 0 -34 -37q0 -35 26 -56q28 18 28 70z" />
    <glyph glyph-name="uniE825" unicode="&#xe825;" 
d="M519 1246q0 -60 -35 -104q-42 -49 -108 -49q-70 0 -96 47q-43 -51 -122 -51q-52 0 -86 43t-34 89q0 34 19 74q25 55 64 55q29 0 29 -31q0 -11 -2.5 -30t-2.5 -29q0 -42 33 -42q38 0 53 31q5 12 19 73q6 31 38 31t35 -34q12 -106 53 -106q38 0 38 45q0 22 -10 56l79 65
q36 -59 36 -133z" />
    <glyph glyph-name="uniE826" unicode="&#xe826;" 
d="M446 -829l-378 -155v114l378 149v-108z" />
    <glyph glyph-name="uniE827" unicode="&#xe827;" 
d="M430 -1012l-377 -154v114l377 148v-108zM430 -799l-377 -155v114l377 149v-108z" />
    <glyph glyph-name="uniE828" unicode="&#xe828;" 
d="M534 1267q0 -60 -35 -104q-42 -49 -108 -49q-70 0 -96 47q-43 -51 -122 -51q-52 0 -86 43t-34 89q0 34 19 74q25 55 64 55q29 0 29 -31q0 -11 -2.5 -30t-2.5 -29q0 -42 33 -42q38 0 53 31q5 12 19 73q6 31 38 31t35 -34q12 -106 53 -106q38 0 38 45q0 22 -10 56l79 65
q36 -59 36 -133zM503 1670l-377 -155v114l377 149v-108z" />
    <glyph glyph-name="uniE829" unicode="&#xe829;" 
d="M579 1195q0 -61 -35 -104q-42 -49 -108 -49q-69 0 -95 47q-42 -50 -123 -50q-57 0 -93 54q-27 40 -27 77q0 33 19 74q25 54 64 54q29 0 29 -30q0 -10 -2.5 -29.5t-2.5 -28.5q0 -42 33 -42q38 0 53 31q4 9 19 73q6 30 38 30t35 -33q12 -106 53 -106q38 0 38 45
q0 22 -10 56l79 64q36 -56 36 -133zM571 1648q0 -50 -71 -129q1 0 47 -12l-49 -88q-71 13 -99 34q-123 -70 -217 -70q-46 0 -86 97q117 2 151 7q63 8 86 28q-35 63 -35 87q0 55 75 109q64 49 100 49q47 0 76 -39q22 -32 22 -73zM459 1637q0 24 -19 24q-10 0 -23 -11.5
t-13 -25.5q0 -35 27 -56q28 18 28 69z" />
    <glyph glyph-name="uniE82A" unicode="&#xe82a;" 
d="M462 1529l-377 -155v114l377 150v-109zM498 1195q0 -61 -35 -104q-42 -49 -108 -49q-69 0 -96 47q-41 -50 -122 -50q-57 0 -93 54q-27 40 -27 77q0 33 19 74q25 54 64 54q29 0 29 -30q0 -10 -2.5 -29.5t-2.5 -28.5q0 -42 33 -42q38 0 53 31q4 9 19 73q6 30 38 30t35 -33
q12 -106 53 -106q38 0 38 45q0 22 -10 56l79 64q36 -56 36 -133zM462 1742l-377 -155v114l377 149v-108z" />
    <glyph glyph-name="uniE82B" unicode="&#xe82b;" 
d="M546 1325q0 -60 -35 -104q-42 -49 -108 -49q-70 0 -96 47q-43 -51 -122 -51q-52 0 -86 43t-34 89q0 34 19 74q25 55 64 55q29 0 29 -31q0 -11 -2.5 -30t-2.5 -29q0 -42 33 -42q38 0 53 31q5 12 19 73q6 31 38 31t35 -34q12 -106 53 -106q38 0 38 45q0 22 -10 56l79 65
q36 -59 36 -133zM557 1772q0 -51 -71 -130l47 -14l-50 -86q-68 12 -98 34q-118 -70 -218 -70q-43 0 -87 96q64 0 73 3q21 24 21 50q0 20 -16 20q-17 0 -62 -48l-18 84q49 56 101 56q19 0 37 -9q48 -22 48 -78q0 -42 -15 -65q46 4 70 23q-36 61 -36 86q0 56 75 110
q64 48 101 48q98 0 98 -110zM445 1760q0 23 -20 23q-34 0 -34 -37q0 -35 26 -56q28 18 28 70z" />
    <glyph glyph-name="uniE82C" unicode="&#xe82c;" 
d="M579 1490q0 -61 -35 -105q-42 -49 -108 -49q-70 0 -96 47q-43 -51 -122 -51q-52 0 -86 43.5t-34 88.5q0 34 19 74q25 55 64 55q29 0 29 -31q0 -11 -2.5 -30t-2.5 -29q0 -41 33 -41q38 0 53 30q5 12 19 74q6 30 38 30t35 -33q12 -107 53 -107q38 0 38 45q0 22 -10 57
l79 65q36 -59 36 -133zM524 1184l-378 -154v113l378 150v-109z" />
    <glyph glyph-name="uniE82D" unicode="&#xe82d;" 
d="M464 1674q0 -61 -35 -105q-42 -49 -108 -49q-70 0 -96 47q-43 -51 -122 -51q-52 0 -86 43.5t-34 88.5q0 34 19 74q25 55 64 55q29 0 29 -31q0 -11 -2.5 -30t-2.5 -29q0 -41 33 -41q38 0 53 30q5 12 19 74q6 30 38 30t35 -33q12 -107 53 -107q38 0 38 45q0 22 -10 57
l79 65q36 -59 36 -133zM409 1368l-378 -154v113l378 150v-109zM409 1184l-378 -154v113l378 150v-109z" />
    </font>
</defs>
</svg>
